<?xml version="1.0" standalone="no"?>
<!DOCTYPE svg PUBLIC "-//W3C//DTD SVG 1.1//EN" "http://www.w3.org/Graphics/SVG/1.1/DTD/svg11.dtd" >
<svg xmlns="http://www.w3.org/2000/svg">
<metadata>Generated by IcoMoon</metadata>
<defs>
<font id="sheshdong" horiz-adv-x="1024">
<font-face units-per-em="1024" ascent="960" descent="-64" />
<missing-glyph horiz-adv-x="1024" />
<glyph unicode="&#x20;" horiz-adv-x="512" d="" />
<glyph unicode="&#xe900;" glyph-name="contact-forms" d="M384 277.333h67.84c45.653 0 88.32 17.92 120.747 49.92l413.867 414.293c24.32 24.32 37.547 56.32 37.547 90.453s-13.227 66.133-37.547 90.453c-49.92 49.92-130.987 49.92-180.907 0l-414.293-414.293c-32.427-32.427-49.92-75.093-49.92-120.747v-67.84c0-23.467 19.2-42.667 42.667-42.667zM926.293 862.293c8.107-8.107 12.373-18.773 12.373-30.293s-4.267-22.187-12.373-30.293l-55.040-55.040-60.16 60.16 55.040 55.040c16.64 16.64 43.52 16.64 60.16 0zM426.667 387.84c0 22.613 8.96 44.373 25.173 60.16l298.667 298.667 60.16-60.16-298.667-298.667c-16.213-16.213-37.547-25.173-60.16-25.173h-25.173v25.173zM1024-21.333c0-23.467-19.2-42.667-42.667-42.667-65.707 0-97.707 47.787-120.747 83.2-21.333 32-32 44.8-49.92 44.8-21.76 0-38.4-18.773-64.427-49.067-29.867-35.413-66.987-78.933-129.28-78.933s-98.987 43.947-128 79.787c-24.747 29.867-40.96 48.213-62.293 48.213-16.64 0-26.88-10.667-49.493-38.827-30.72-37.547-72.96-89.173-163.84-89.173-117.76 0-213.333 95.573-213.333 213.333s95.573 213.333 213.333 213.333c23.467 0 42.667-19.2 42.667-42.667s-19.2-42.667-42.667-42.667c-70.4 0-128-57.6-128-128s57.6-128 128-128c50.347 0 71.253 25.6 97.707 58.027 25.6 31.147 57.173 69.973 115.627 69.973 62.72 0 98.987-43.947 128-79.787 24.747-29.867 40.96-48.213 62.293-48.213s38.4 18.773 64.427 49.067c29.867 35.413 66.987 78.933 129.28 78.933s97.707-47.787 120.747-83.2c21.333-32 32-44.8 49.92-44.8 23.467 0 42.667-19.2 42.667-42.667z" />
<glyph unicode="&#xe901;" glyph-name="file-manager" d="M1002.368 489.941c-20.779 27.904-52.651 43.947-87.467 43.947h-18.901v84.779c0 117.632-95.701 213.333-213.333 213.333h-215.723c-6.571 0-13.227 1.579-19.072 4.48l-134.613 67.328c-17.664 8.832-37.461 13.483-57.259 13.483h-85.333c-94.123 0.043-170.667-76.501-170.667-170.624v-554.667c0-117.632 95.701-213.333 213.333-213.333h535.808c94.976 0 177.067 61.099 204.885 153.899l65.365 260.949c9.984 33.365 3.797 68.48-16.981 96.427zM85.333 192v554.667c0 47.061 38.272 85.333 85.333 85.333h85.333c6.571 0 13.227-1.579 19.072-4.48l134.613-67.328c17.664-8.832 37.461-13.483 57.259-13.483h215.723c70.571 0 128-57.429 128-128v-84.779h-443.093c-72.533 0-137.301-46.037-161.664-116.053l-93.44-304.555c-16.981 21.717-27.136 49.067-27.136 78.72zM937.131 416.128l-65.365-260.907c-16.384-54.571-65.664-91.221-122.624-91.221h-535.808c-8.875 0-17.536 0.896-25.899 2.645l99.584 324.651c11.904 34.261 44.331 57.259 80.597 57.259h547.328c10.325 0 16.341-5.973 18.987-9.557s6.656-11.051 3.2-22.869z" />
<glyph unicode="&#xe902;" glyph-name="google-analytics" d="M981.333 21.333h-768c-70.692 0-128 57.308-128 128v0 768c0 23.564-19.103 42.667-42.667 42.667s-42.667-19.103-42.667-42.667v0-768c0.146-117.762 95.571-213.188 213.319-213.333h768.014c23.564 0 42.667 19.103 42.667 42.667s-19.103 42.667-42.667 42.667v0zM256 106.667c23.564 0 42.667 19.103 42.667 42.667v0 298.667c0 23.564-19.103 42.667-42.667 42.667s-42.667-19.103-42.667-42.667v0-298.667c0-23.564 19.103-42.667 42.667-42.667v0zM426.667 533.333v-384c0-23.564 19.103-42.667 42.667-42.667s42.667 19.103 42.667 42.667v0 384c0 23.564-19.103 42.667-42.667 42.667s-42.667-19.103-42.667-42.667v0zM640 405.333v-256c0-23.564 19.103-42.667 42.667-42.667s42.667 19.103 42.667 42.667v0 256c0 23.564-19.103 42.667-42.667 42.667s-42.667-19.103-42.667-42.667v0zM853.333 576v-426.667c0-23.564 19.103-42.667 42.667-42.667s42.667 19.103 42.667 42.667v0 426.667c0 23.564-19.103 42.667-42.667 42.667s-42.667-19.103-42.667-42.667v0zM256 576c11.781 0.003 22.446 4.78 30.165 12.501l153.003 153.003c7.832 7.471 18.462 12.069 30.165 12.069s22.334-4.597 30.183-12.085l-0.017 0.016 92.672-92.672c23.162-23.155 55.157-37.477 90.496-37.477s67.334 14.321 90.496 37.477l238.336 238.336c7.41 7.665 11.977 18.12 11.977 29.641 0 23.564-19.103 42.667-42.667 42.667-11.521 0-21.976-4.567-29.653-11.989l-238.324-238.281c-7.721-7.718-18.386-12.492-30.165-12.492s-22.445 4.774-30.165 12.492l-92.672 92.629c-23.162 23.155-55.157 37.477-90.496 37.477s-67.334-14.321-90.496-37.477l-153.002-153.002c-7.718-7.721-12.492-18.386-12.492-30.165 0-23.561 19.097-42.661 42.657-42.667h0.001z" />
<glyph unicode="&#xe903;" glyph-name="tickets" d="M810.667 64h-597.333c-117.632 0-213.333 95.701-213.333 213.333v39.339c0 23.552 19.115 42.667 42.667 42.667 1.024 0 2.261-0.043 3.499-0.128 47.189 0.896 85.333 39.595 85.333 87.040s-38.144 86.187-85.333 87.083c-1.237-0.085-2.475-0.128-3.456-0.128-23.552 0-42.667 19.115-42.667 42.667v42.837c-0.043 117.589 95.659 213.291 213.291 213.291h597.333c117.632 0 213.333-95.701 213.333-213.333v-42.667c0-23.552-19.115-42.667-42.667-42.667-47.061 0-85.333-38.272-85.333-85.333s38.272-85.333 85.333-85.333c23.552 0 42.667-19.115 42.667-42.667v-42.667c0-117.632-95.701-213.333-213.333-213.333zM85.333 278.741v-1.408c0-70.571 57.429-128 128-128h597.333c70.571 0 128 57.429 128 128v5.376c-73.515 18.987-128 85.888-128 165.291s54.485 146.261 128 165.291v5.376c0 70.571-57.429 128-128 128h-597.333c-70.571 0-128-57.429-128-128v-4.907c75.392-18.432 131.499-86.528 131.499-167.509s-56.107-149.077-131.499-167.509z" />
<glyph unicode="&#xe904;" glyph-name="managers" d="M467.541 295.424c-6.656-22.528-30.123-35.541-53.077-28.715-23.595 7.040-48.171 10.624-73.131 10.624-141.184 0-256-114.816-256-256v-42.667c0-23.552-19.072-42.667-42.667-42.667s-42.667 19.115-42.667 42.667v42.667c0 188.203 153.131 341.333 341.333 341.333 33.195 0 66.048-4.779 97.536-14.165 22.571-6.741 35.413-30.507 28.672-53.077zM1024 344.064v-131.627c0-172.032-169.515-253.525-218.709-273.323-5.12-2.048-10.539-3.072-15.915-3.072-6.528 0-13.099 1.493-19.755 4.821-47.915 23.979-214.955 119.296-214.955 271.573v131.627c0 55.253 35.243 104.064 87.68 121.515l133.589 44.288c8.661 2.859 18.176 2.859 26.837 0l133.547-44.288c52.437-17.408 87.723-66.261 87.723-121.515zM938.667 344.064c0 18.432-11.733 34.688-29.269 40.491l-120.064 39.808-120.107-39.808c-17.451-5.803-29.227-22.101-29.227-40.491v-131.627c0-97.28 112.213-165.888 151.253-186.837 43.989 19.371 147.413 76.629 147.413 186.837v131.627zM597.333 704c0-141.184-114.816-256-256-256s-256 114.816-256 256 114.816 256 256 256 256-114.816 256-256zM512 704c0 94.123-76.544 170.667-170.667 170.667s-170.667-76.544-170.667-170.667 76.544-170.667 170.667-170.667 170.667 76.544 170.667 170.667z" />
<glyph unicode="&#xe905;" glyph-name="settings" d="M640 704c0 141.184-114.816 256-256 256s-256-114.816-256-256 114.816-256 256-256 256 114.816 256 256zM384 533.333c-94.123 0-170.667 76.544-170.667 170.667s76.544 170.667 170.667 170.667 170.667-76.544 170.667-170.667-76.544-170.667-170.667-170.667zM383.659 322.645c2.901-23.381-13.653-44.672-37.077-47.616-148.949-18.603-261.291-145.963-261.291-296.363 0-23.552-19.115-42.667-42.667-42.667s-42.667 19.115-42.667 42.667c0 193.323 144.469 357.12 336.043 381.013 23.125 2.944 44.672-13.653 47.616-37.077zM968.363 143.659l-41.557 23.979c7.083 21.205 11.861 43.477 11.861 67.072s-4.736 45.867-11.861 67.072l41.557 23.979c20.395 11.776 27.392 37.888 15.616 58.283-11.819 20.437-37.845 27.477-58.283 15.616l-41.515-23.979c-30.080 33.877-70.144 58.667-116.181 68.011v46.976c0 23.552-19.115 42.667-42.667 42.667s-42.667-19.115-42.667-42.667v-46.976c-46.037-9.387-86.101-34.176-116.181-68.011l-41.515 23.979c-20.48 11.819-46.507 4.821-58.283-15.616s-4.779-46.507 15.616-58.283l41.557-23.979c-7.083-21.205-11.861-43.477-11.861-67.072s4.736-45.867 11.861-67.072l-41.557-23.979c-20.395-11.776-27.392-37.888-15.616-58.283 7.936-13.696 22.229-21.333 36.992-21.333 7.211 0 14.549 1.835 21.291 5.717l41.515 23.979c30.080-33.877 70.144-58.667 116.181-68.011v-46.976c0-23.552 19.115-42.667 42.667-42.667s42.667 19.115 42.667 42.667v46.976c46.037 9.387 86.101 34.176 116.181 68.011l41.515-23.979c6.741-3.883 14.080-5.717 21.291-5.717 14.763 0 29.099 7.637 36.992 21.333 11.776 20.437 4.779 46.507-15.616 58.283zM725.333 106.709c-70.571 0-128 57.429-128 128s57.429 128 128 128 128-57.429 128-128-57.429-128-128-128z" />
<glyph unicode="&#xe906;" glyph-name="user-profile" d="M384 448c141.184 0 256 114.816 256 256s-114.816 256-256 256-256-114.816-256-256 114.816-256 256-256zM384 874.667c94.123 0 170.667-76.544 170.667-170.667s-76.544-170.667-170.667-170.667-170.667 76.544-170.667 170.667 76.544 170.667 170.667 170.667zM458.667 267.947c-24.235 6.229-49.365 9.387-74.667 9.387-164.693 0-298.667-133.973-298.667-298.667 0-23.552-19.115-42.667-42.667-42.667s-42.667 19.115-42.667 42.667c0 211.712 172.288 384 384 384 32.512 0 64.811-4.053 96-12.117 22.827-5.888 36.523-29.141 30.677-51.968s-29.013-36.523-51.968-30.677zM986.496 453.163c-48.384 48.384-132.693 48.384-181.035 0l-286.165-286.165c-32.213-32.213-50.005-75.093-50.005-120.704v-67.669c0-23.552 19.115-42.667 42.667-42.667h67.669c45.611 0 88.448 17.792 120.661 50.005l286.165 286.165c24.192 24.192 37.504 56.32 37.504 90.539s-13.312 66.347-37.461 90.496zM926.123 332.501l-286.208-286.165c-16.085-16.128-37.504-25.003-60.331-25.003h-25.003v25.003c0 22.784 8.875 44.203 25.003 60.331l286.208 286.165c16.085 16.128 44.203 16.128 60.331 0 8.064-8.021 12.501-18.731 12.501-30.165s-4.437-22.101-12.501-30.165z" />
<glyph unicode="&#xe907;" glyph-name="users" d="M320 405.333c-106.039 0-192 85.961-192 192s85.961 192 192 192c106.039 0 192-85.961 192-192v0c-0.121-105.99-86.010-191.879-191.989-192h-0.011zM320 704c-58.91 0-106.667-47.756-106.667-106.667s47.756-106.667 106.667-106.667c58.91 0 106.667 47.756 106.667 106.667v0c0 58.91-47.756 106.667-106.667 106.667v0zM640-21.333v21.333c0 176.731-143.269 320-320 320s-320-143.269-320-320v0-21.333c0-23.564 19.103-42.667 42.667-42.667s42.667 19.103 42.667 42.667v0 21.333c0 129.603 105.064 234.667 234.667 234.667s234.667-105.064 234.667-234.667v0-21.333c0-23.564 19.103-42.667 42.667-42.667s42.667 19.103 42.667 42.667v0zM1024 192c-0.005 164.946-133.721 298.658-298.667 298.658-76.635 0-146.529-28.863-199.404-76.312l0.279 0.246c-8.911-7.859-14.503-19.302-14.503-32.051 0-23.564 19.103-42.667 42.667-42.667 11.093 0 21.198 4.234 28.786 11.173l-0.033-0.029c37.565 33.703 87.48 54.311 142.208 54.311 117.82 0 213.331-95.511 213.333-213.33v0c0-23.564 19.103-42.667 42.667-42.667s42.667 19.103 42.667 42.667v0zM746.667 576c-106.039 0-192 85.961-192 192s85.961 192 192 192c106.039 0 192-85.961 192-192v0c-0.121-105.99-86.010-191.879-191.989-192h-0.011zM746.667 874.667c-58.91 0-106.667-47.756-106.667-106.667s47.756-106.667 106.667-106.667c58.91 0 106.667 47.756 106.667 106.667v0c0 58.91-47.756 106.667-106.667 106.667v0z" />
<glyph unicode="&#xe908;" glyph-name="supports" d="M362.667 554.667c0-23.509 5.461-45.781 15.189-65.579-20.907-26.795-33.92-60.032-35.669-96.256-40.149 42.155-64.853 99.157-64.853 161.792 0 145.536 133.205 260.565 284.117 229.589 88.832-18.261 160.811-89.813 179.755-178.517 5.717-26.795 6.784-53.035 3.883-78.123-2.475-21.248-21.12-36.949-42.539-36.949h-1.92c-25.259 0-43.008 22.485-40.235 47.573 1.877 16.853 0.896 34.56-3.413 52.608-12.715 53.461-56.32 96.768-109.867 109.099-97.536 22.4-184.491-51.499-184.491-145.28zM196.693 609.92c11.691 67.968 44.928 129.92 96.469 178.261 65.237 61.141 150.656 91.349 240.213 85.803 168.661-10.923 300.544-158.677 298.581-335.573-0.811-74.069-62.848-133.035-136.875-133.035h-102.656c-10.411 35.371-42.752 61.397-81.493 61.397-47.147 0-85.333-38.187-85.333-85.333s38.187-85.333 85.333-85.333c22.955 0 43.733 9.173 59.051 23.936h125.099c120.277 0 220.501 95.787 222.208 216.021 3.157 222.763-164.181 409.216-378.411 423.040-113.664 7.381-221.483-31.232-304.043-108.715-63.957-59.947-106.496-139.307-121.813-224.683-4.651-25.941 15.872-49.749 42.197-49.749 20.139 0 38.101 14.037 41.472 33.92zM512 234.667c-157.653 0-294.059-97.792-339.413-243.285-7.040-22.485 5.547-46.421 28.032-53.461 22.443-6.784 46.379 5.589 53.419 28.032 33.664 107.947 139.691 183.381 257.92 183.381s224.299-75.435 257.92-183.381c5.717-18.261 22.528-29.952 40.747-29.952 4.224 0 8.448 0.64 12.715 1.92 22.485 7.040 35.029 30.976 28.032 53.461-45.355 145.493-181.76 243.285-339.413 243.285z" />
<glyph unicode="&#xe909;" glyph-name="suggestions" d="M21.333 682.667c0 58.923 47.744 106.667 106.667 106.667s106.667-47.744 106.667-106.667-47.744-106.667-106.667-106.667-106.667 47.744-106.667 106.667zM384 85.333v-106.667c0-23.552-19.115-42.667-42.667-42.667s-42.667 19.115-42.667 42.667v106.667c0 11.776-9.557 21.333-21.333 21.333 0 0-150.827 0-151.552 0.043-69.547 1.195-125.781 58.112-125.781 127.957v170.667c0 70.571 57.429 128 128 128s128-57.429 128-128v-213.333h21.333c58.795 0 106.667-47.872 106.667-106.667zM170.667 192v213.333c0 23.509-19.157 42.667-42.667 42.667s-42.667-19.157-42.667-42.667v-170.667c0-23.509 19.157-42.667 42.667-42.667h42.667zM896 576c58.923 0 106.667 47.744 106.667 106.667s-47.744 106.667-106.667 106.667-106.667-47.744-106.667-106.667 47.744-106.667 106.667-106.667zM1024 405.333v-170.667c0-69.845-56.235-126.763-125.781-127.957-0.725 0-151.552-0.043-151.552-0.043-11.776 0-21.333-9.557-21.333-21.333v-106.667c0-23.552-19.115-42.667-42.667-42.667s-42.667 19.115-42.667 42.667v106.667c0 58.795 47.872 106.667 106.667 106.667h21.333v213.333c0 70.571 57.429 128 128 128s128-57.429 128-128zM938.667 405.333c0 23.509-19.157 42.667-42.667 42.667s-42.667-19.157-42.667-42.667v-213.333h42.667c23.509 0 42.667 19.157 42.667 42.667v170.667zM682.667 362.667c0 23.552-19.115 42.667-42.667 42.667h-256c-23.552 0-42.667-19.115-42.667-42.667s19.115-42.667 42.667-42.667h256c23.552 0 42.667 19.115 42.667 42.667zM298.667 744.619v89.429c0 69.461 56.491 125.952 125.952 125.952h174.763c69.461 0 125.952-56.491 125.952-125.952v-89.429c0-65.408-50.133-119.339-114.005-125.397l-59.307-49.109c-11.605-10.368-26.539-15.573-41.685-15.573-15.488 0-31.104 5.461-43.563 16.555l-58.837 48.683c-61.611 8.192-109.269 61.056-109.269 124.843zM384 744.619c0-22.4 18.219-40.619 40.619-40.619 9.941 0 19.541-3.456 27.221-9.771l58.155-48.128 58.112 48.128c7.637 6.357 17.28 9.813 27.221 9.813h4.096c22.4 0 40.619 18.219 40.619 40.619v89.429c0 22.4-18.219 40.619-40.619 40.619h-174.763c-22.4 0-40.619-18.219-40.619-40.619v-89.429zM170.667 21.333h-128c-23.552 0-42.667-19.115-42.667-42.667s19.115-42.667 42.667-42.667h128c23.552 0 42.667 19.115 42.667 42.667s-19.115 42.667-42.667 42.667zM981.333 21.333h-128c-23.552 0-42.667-19.115-42.667-42.667s19.115-42.667 42.667-42.667h128c23.552 0 42.667 19.115 42.667 42.667s-19.115 42.667-42.667 42.667z" />
<glyph unicode="&#xe90a;" glyph-name="pages" d="M938.667 192v-42.667c0-117.632-95.701-213.333-213.333-213.333h-426.667c-117.632 0-213.333 95.701-213.333 213.333v42.667c0 23.595 19.072 42.667 42.667 42.667s42.667-19.072 42.667-42.667v-42.667c0-70.571 57.429-128 128-128h426.667c70.571 0 128 57.429 128 128v42.667c0 23.595 19.072 42.667 42.667 42.667s42.667-19.072 42.667-42.667zM85.333 533.333v213.333c0 117.632 95.701 213.333 213.333 213.333h192.64c79.787 0 154.795-31.104 211.2-87.509l148.651-148.651c56.405-56.405 87.509-131.413 87.509-211.2 0-23.595-19.072-42.667-42.667-42.667s-42.667 19.072-42.667 42.667c0 7.040-1.365 13.781-2.005 20.693h-211.328c-70.571 0-128 57.429-128 128v211.328c-6.912 0.683-13.653 2.005-20.693 2.005h-192.64c-70.571 0-128-57.429-128-128v-213.333c0-23.595-19.072-42.667-42.667-42.667s-42.667 19.072-42.667 42.667zM642.176 812.16c-13.44 13.44-28.8 24.064-44.843 33.323v-184.149c0-23.552 19.115-42.667 42.667-42.667h184.149c-9.259 16.043-19.883 31.403-33.323 44.843l-148.651 148.651zM256 320c23.595 0 42.667 19.072 42.667 42.667s-19.072 42.667-42.667 42.667h-170.667c-23.595 0-42.667-19.072-42.667-42.667s19.072-42.667 42.667-42.667h170.667zM426.667 405.333c-23.595 0-42.667-19.072-42.667-42.667s19.072-42.667 42.667-42.667h170.667c23.595 0 42.667 19.072 42.667 42.667s-19.072 42.667-42.667 42.667h-170.667zM938.667 405.333h-170.667c-23.595 0-42.667-19.072-42.667-42.667s19.072-42.667 42.667-42.667h170.667c23.595 0 42.667 19.072 42.667 42.667s-19.072 42.667-42.667 42.667z" />
<glyph unicode="&#xe90b;" glyph-name="sites" d="M358.613 381.355l-13.397-156.117c-1.323-18.773-14.379-33.237-30.123-33.237-10.411 0-20.096 6.443-25.643 17.067l-35.456 68.267-35.456-68.267c-5.504-10.624-15.189-17.067-25.643-17.067-15.701 0-28.8 14.464-30.123 33.237l-13.397 156.117c-1.109 12.885 9.045 23.979 21.973 23.979 11.52 0 21.077-8.832 22.016-20.352l9.045-114.389 32 61.568c8.235 15.872 30.933 15.872 39.168 0l32-61.568 8.96 114.389c0.896 11.477 10.496 20.352 22.016 20.352h0.085c12.928 0 23.083-11.093 21.973-23.979zM592.64 405.333h-20.523l-10.539-134.741-32 61.568c-8.235 15.872-30.933 15.872-39.168 0l-32-61.568-9.045 114.389c-0.896 11.477-10.496 20.352-22.016 20.352-12.928 0-23.083-11.093-21.973-23.979l13.397-156.117c1.323-18.773 14.379-33.237 30.123-33.237 10.411 0 20.096 6.443 25.643 17.067l35.456 68.267 35.456-68.267c5.504-10.624 15.189-17.067 25.643-17.067 15.701 0 28.8 14.464 30.123 33.237l13.397 156.117c1.109 12.885-9.045 23.979-21.973 23.979zM848.64 405.333h-0.085c-11.52 0-21.12-8.875-22.016-20.352l-8.96-114.389-32 61.568c-8.235 15.872-30.933 15.872-39.168 0l-32-61.568-9.045 114.389c-0.896 11.477-10.496 20.352-22.016 20.352-12.928 0-23.083-11.093-21.973-23.979l13.397-156.117c1.323-18.773 14.379-33.237 30.123-33.237 10.411 0 20.096 6.443 25.643 17.067l35.456 68.267 35.456-68.267c5.504-10.624 15.189-17.067 25.643-17.067 15.701 0 28.8 14.464 30.123 33.237l13.397 156.117c1.109 12.885-9.045 23.979-21.973 23.979zM192 661.333c35.328 0 64 28.672 64 64s-28.672 64-64 64-64-28.672-64-64 28.672-64 64-64zM362.667 661.333c35.328 0 64 28.672 64 64s-28.672 64-64 64-64-28.672-64-64 28.672-64 64-64zM1024 704v-512c0-117.632-95.701-213.333-213.333-213.333h-597.333c-117.632 0-213.333 95.701-213.333 213.333v512c0 117.632 95.701 213.333 213.333 213.333h597.333c117.632 0 213.333-95.701 213.333-213.333zM85.333 704v-85.333h853.333v85.333c0 70.571-57.429 128-128 128h-597.333c-70.571 0-128-57.429-128-128zM938.667 192v341.333h-853.333v-341.333c0-70.571 57.429-128 128-128h597.333c70.571 0 128 57.429 128 128z" />
<glyph unicode="&#xe90c;" glyph-name="links" d="M160.896 389.12c-8.448-10.197-20.608-15.488-32.896-15.488-9.557 0-19.2 3.2-27.136 9.771-64.085 52.907-100.821 130.901-100.821 213.973-0.043 152.875 124.373 277.291 277.291 277.291h213.333c152.917 0 277.333-124.416 277.333-277.333s-124.416-277.333-277.333-277.333c-23.552 0-42.667 19.072-42.667 42.667s19.115 42.667 42.667 42.667c105.856 0 192 86.144 192 192s-86.144 192-192 192h-213.333c-105.856 0-192-86.144-192-192 0-57.515 25.472-111.488 69.845-148.139 18.176-15.019 20.736-41.899 5.717-60.075zM923.179 512.64c-18.176 14.933-45.056 12.373-60.075-5.76-15.019-18.176-12.459-45.099 5.717-60.075 44.373-36.608 69.845-90.624 69.845-148.139 0-105.856-86.144-192-192-192h-213.333c-105.856 0-192 86.144-192 192s86.144 192 192 192c23.552 0 42.667 19.072 42.667 42.667s-19.115 42.667-42.667 42.667c-152.917 0-277.333-124.416-277.333-277.333s124.416-277.333 277.333-277.333h213.333c152.917 0 277.333 124.416 277.333 277.333 0 83.029-36.736 161.024-100.821 213.973z" />
<glyph unicode="&#xe90d;" glyph-name="pre-messages" d="M634.923 234.667c-10.923 0-21.845 4.181-30.165 12.501-16.683 16.683-16.683 43.648 0 60.331l108.203 108.203c16.64 16.64 16.64 43.691 0 60.331l-112.469 112.469c-16.683 16.683-16.683 43.691 0 60.331 16.683 16.683 43.648 16.683 60.331 0l112.469-112.469c24.107-24.107 37.376-56.235 37.376-90.496s-13.312-66.389-37.376-90.496l-108.203-108.203c-8.32-8.32-19.243-12.501-30.165-12.501zM1024 149.333v284.16c0 276.437-209.237 507.136-476.331 525.269-148.139 10.112-293.333-44.16-397.952-148.992-104.619-104.747-158.72-249.899-148.437-398.208 18.773-271.104 258.219-475.563 556.971-475.563h252.459c117.632 0 213.333 95.701 213.333 213.333zM541.909 873.643c222.507-15.104 396.757-208.427 396.757-440.149v-284.16c0-70.571-57.429-128-128-128h-252.459c-257.493 0-455.936 166.613-471.851 396.16-8.576 123.691 36.48 244.693 123.691 332.032 80.299 80.384 189.227 125.141 302.549 125.141 9.728 0 19.499-0.299 29.269-0.981zM419.243 247.168c16.683 16.64 16.683 43.648 0 60.331l-108.16 108.203c-16.64 16.64-16.64 43.691 0 60.331l112.469 112.469c16.683 16.683 16.683 43.691 0 60.331-16.683 16.683-43.648 16.683-60.331 0l-112.469-112.469c-24.107-24.107-37.376-56.235-37.376-90.496s13.312-66.389 37.376-90.496l108.16-108.203c8.32-8.32 19.243-12.501 30.165-12.501s21.845 4.181 30.165 12.501z" />
<glyph unicode="&#xe90e;" glyph-name="faqs" d="M507.904 277.333c35.328 0 64-28.672 64-64s-28.672-64-64-64-64 28.672-64 64 28.672 64 64 64zM550.571 362.667c0 23.936 17.408 52.267 39.595 64.512 64 35.243 98.432 107.648 85.717 180.181-12.075 68.821-68.565 125.355-137.429 137.429-50.432 8.704-101.547-4.779-140.331-37.291-38.699-32.555-60.928-80.171-60.928-130.688 0-23.595 19.115-42.667 42.667-42.667s42.667 19.072 42.667 42.667c0 25.259 11.093 49.067 30.464 65.365 19.669 16.469 44.885 23.125 70.699 18.56 33.579-5.888 62.208-34.56 68.096-68.096 6.528-37.163-10.283-72.747-42.837-90.667-49.323-27.179-83.755-84.437-83.755-139.264 0-23.595 19.115-42.667 42.667-42.667s42.667 19.072 42.667 42.667zM1024 149.333v284.16c0 276.437-209.237 507.136-476.331 525.312-148.267 9.813-293.333-44.288-397.952-149.035-104.619-104.789-158.72-249.899-148.437-398.208 18.773-271.104 258.219-475.563 556.971-475.563h252.459c117.632 0 213.333 95.701 213.333 213.333zM541.909 873.643c222.507-15.104 396.757-208.427 396.757-440.107v-284.16c0-70.571-57.429-128-128-128h-252.459c-257.493 0-455.936 166.571-471.851 396.117-8.576 123.691 36.48 244.693 123.691 331.989 80.299 80.427 189.227 125.184 302.592 125.184 9.728 0 19.499-0.341 29.227-0.981z" />
<glyph unicode="&#xe90f;" glyph-name="chats" d="M1024 277.333v-213.333c0-70.692-57.308-128-128-128v0h-213.333c-125.541 0.133-235.196 68.019-294.382 169.056l-0.872 1.61c34.020 0.251 67.005 4.093 98.773 11.164l-3.114-0.582c47.214-58.68 119.021-95.915 199.526-95.915 0.024 0 0.048 0 0.072 0h213.33c23.564 0 42.667 19.103 42.667 42.667v0 213.333c-0.022 80.556-37.322 152.395-95.587 199.208l-0.498 0.387c6.539 28.63 10.44 61.604 10.75 95.435l0.002 0.223c102.648-60.058 170.534-169.713 170.667-295.235v-0.019zM767.019 548.224c0.642 8.32 1.008 18.019 1.008 27.802 0 212.077-171.923 384-384 384-9.784 0-19.482-0.366-29.082-1.085l1.28 0.077c-200.184-23.524-354.295-191.252-356.223-395.365l-0.001-0.197v-215.040c0-108.032 64.299-156.416 128-156.416h243.2c204.411 1.815 372.264 155.962 395.637 354.334l0.181 1.89zM595.2 787.157c54.048-54.164 87.469-128.928 87.469-211.498 0-7.552-0.28-15.040-0.829-22.452l0.059 0.99c-19.241-156.284-150.864-276.195-310.629-276.864h-243.269c-39.595 0-42.667 54.4-42.667 71.083v215.040c0.765 159.755 120.672 291.27 275.385 310.29l1.522 0.152q10.624 0.768 21.248 0.768c0.083 0 0.181 0 0.279 0 82.557 0 157.304-33.439 211.436-87.512l-0.002 0.002z" />
<glyph unicode="&#xe910;" glyph-name="message-center" d="M576 448c0-35.328-28.672-64-64-64s-64 28.672-64 64 28.672 64 64 64 64-28.672 64-64zM725.333 512c-35.328 0-64-28.672-64-64s28.672-64 64-64 64 28.672 64 64-28.672 64-64 64zM298.667 512c-35.328 0-64-28.672-64-64s28.672-64 64-64 64 28.672 64 64-28.672 64-64 64zM1024 433.493v-284.16c0-117.632-95.701-213.333-213.333-213.333h-252.459c-298.709 0-538.155 204.459-556.928 475.563-10.283 148.309 43.819 293.461 148.437 398.208s249.771 159.019 397.952 148.992c267.093-18.133 476.331-248.875 476.331-525.312zM938.667 433.493c0 231.723-174.251 425.045-396.757 440.149-9.771 0.683-19.541 0.981-29.269 0.981-113.323 0-222.251-44.715-302.549-125.141-87.211-87.296-132.309-208.341-123.691-332.032 15.915-229.547 214.357-396.16 471.851-396.16h252.459c70.571 0 128 57.429 128 128v284.16z" />
<glyph unicode="&#xe911;" glyph-name="wallet2" d="M896 704h-682.667c-36.651 0-71.339 15.872-95.36 42.624 23.467 26.197 57.557 42.709 95.36 42.709h768c23.595 0 42.667 19.115 42.667 42.667s-19.072 42.667-42.667 42.667h-768c-117.803 0-213.333-95.531-213.333-213.333v-426.667c0-117.803 95.531-213.333 213.333-213.333h682.667c70.699 0 128 57.301 128 128v426.667c0 70.699-57.301 128-128 128zM938.667 149.333c0-23.509-19.115-42.667-42.667-42.667h-682.667c-70.571 0-128 57.429-128 128v426.752c36.437-27.264 81.237-42.752 128-42.752h682.667c23.552 0 42.667-19.157 42.667-42.667v-426.667zM853.333 362.667c0-23.552-19.115-42.667-42.667-42.667s-42.667 19.115-42.667 42.667 19.115 42.667 42.667 42.667 42.667-19.115 42.667-42.667z" />
<glyph unicode="&#xe912;" glyph-name="message-minus1" d="M362.667 544c-17.673 0-32-14.327-32-32v0c0-17.673 14.327-32 32-32v0h298.667c17.673 0 32 14.327 32 32v0c0 17.673-14.327 32-32 32v0zM298.667 888.333c-71.111 0-133.535-24.285-177.333-68.083s-68-106.139-68-177.25v-256c0-71.111 24.202-133.535 68-177.333s106.222-68 177.333-68h161l181.75-120.917c47.958-31.972 115.917 4.133 115.917 62v64.583c57.028 6.47 108.619 25.619 145.333 62.333 43.798 43.798 68 106.222 68 177.333v256c0 71.111-24.202 133.452-68 177.25s-106.222 68.083-177.333 68.083zM298.667 824.333h426.667c56.889 0 101.132-18.465 132-49.333s49.333-75.111 49.333-132v-256c0-56.889-18.465-101.215-49.333-132.083s-75.111-49.25-132-49.25c-17.672-0.002-31.998-14.328-32-32v0-90.917c0-10.4-8.055-14.324-16.417-8.75l-189.833 126.25c-4.984 3.381-11.13 5.403-17.746 5.417h-170.671c-56.889 0-101.132 18.382-132 49.25s-49.333 75.194-49.333 132.083v256c0 56.889 18.465 101.132 49.333 132s75.111 49.333 132 49.333z" />
<glyph unicode="&#xe913;" glyph-name="cycle" d="M741.917 722.917c-5.092 3.573-11.418 5.709-18.243 5.709-10.828 0-20.399-5.378-26.19-13.608l-0.068-0.102c-3.573-5.092-5.709-11.418-5.709-18.243 0-10.828 5.378-20.399 13.608-26.19l0.102-0.068c77.945-54.171 131.663-140.211 142.583-239.667 1.81-16.115 15.361-28.528 31.811-28.528 1.241 0 2.465 0.071 3.669 0.208l-0.147-0.014c16.115 1.81 28.528 15.361 28.528 31.811 0 1.241-0.071 2.465-0.208 3.669l0.014-0.147c-12.973 118.146-77.029 220.726-169.75 285.167zM284.083 720.833c-91.802-64.91-154.947-167.583-167-285.333-0.105-0.974-0.165-2.105-0.165-3.249 0-16.528 12.53-30.129 28.61-31.823l0.139-0.012c0.974-0.105 2.105-0.165 3.249-0.165 16.528 0 30.129 12.53 31.823 28.61l0.012 0.139c10.134 99.001 63.092 184.944 140.25 239.5 8.248 5.867 13.564 15.39 13.564 26.156 0 6.94-2.209 13.364-5.963 18.608l0.066-0.097c-5.869 8.226-15.38 13.525-26.128 13.525-6.916 0-13.32-2.194-18.553-5.924l0.098 0.066zM339.5 96.917c-8.159-2.722-14.706-8.403-18.499-15.738l-0.084-0.179c-2.186-4.215-3.468-9.203-3.468-14.49 0-12.37 7.018-23.1 17.29-28.426l0.178-0.084c53.939-27.435 115.212-42.75 179.583-42.75 61.949 0 120.654 13.941 173.167 39.5 10.726 5.319 17.97 16.194 17.97 28.76 0 5.091-1.189 9.904-3.304 14.176l0.084-0.187c-5.319 10.726-16.194 17.97-28.76 17.97-5.091 0-9.904-1.189-14.177-3.304l0.187 0.084c-43.914-21.374-92.77-33-145.167-33-54.242 0-105.536 12.838-150.583 35.75-4.223 2.197-9.222 3.485-14.522 3.485-3.537 0-6.94-0.574-10.121-1.633l0.226 0.065zM514.5 900.667c-82.804 0-150.583-67.782-150.583-150.583s67.78-150.667 150.583-150.667c82.801 0 150.667 67.863 150.667 150.667s-67.866 150.583-150.667 150.583zM514.5 836.667c48.211 0 86.667-38.37 86.667-86.583s-38.455-86.667-86.667-86.667c-48.217 0-86.583 38.451-86.583 86.667s38.367 86.583 86.583 86.583zM206.083 379.333c-82.802 0-150.583-67.779-150.583-150.583 0-82.801 67.78-150.667 150.583-150.667s150.667 67.866 150.667 150.667c0 82.804-67.865 150.583-150.667 150.583zM206.083 315.333c48.215 0 86.667-38.367 86.667-86.583 0-48.211-38.453-86.667-86.667-86.667s-86.583 38.455-86.583 86.667c0 48.217 38.369 86.583 86.583 86.583zM817.917 379.333c-82.8 0-150.583-67.779-150.583-150.583 0-82.801 67.782-150.667 150.583-150.667 82.805 0 150.667 67.867 150.667 150.667 0 82.803-67.864 150.583-150.667 150.583zM817.917 315.333c48.217 0 86.667-38.366 86.667-86.583 0-48.212-38.451-86.667-86.667-86.667-48.211 0-86.583 38.456-86.583 86.667 0 48.216 38.371 86.583 86.583 86.583z" />
<glyph unicode="&#xe914;" glyph-name="call-2" d="M785.5 906.667c-16.404 0-32.854-3.501-48.083-10.75-15.49-7.17-30.206-18.627-41.167-34.333l-0.085-0.083-98.75-139.25c-8.731-12.127-15.546-23.935-20.5-35.917-0.011-0.025 0.011-0.058 0-0.083-5.174-12.093-8.583-24.891-8.583-38.583 0-16.312 4.912-32.381 13.417-46.5 7.394-12.95 17.172-25.005 28.833-36.667l-0.5 0.417 29.667-30.833c-0.154-0.352-0.324-0.915-0.5-1.333-5.957-10.804-17.935-27.795-35.667-48.75-18.796-21.71-38.738-43.741-60.25-65.667-22.584-22.155-44.060-42.405-65.667-60.75v0.085c-20.917-17.699-37.712-29.204-49.083-35.25-0.573-0.256-1.095-0.441-1.583-0.667l-29.5 29.166c-11.803 11.783-23.921 21.441-37.414 28.665-13.702 8.172-29.74 13.417-46.083 13.417-12.598 0-25.482-2.845-38.083-8-12.147-4.969-23.809-11.63-35.75-19.75l-0.333-0.166-141.417-100.502c-14.853-10.354-27.082-24.209-34.25-40.5l-0.25-0.5-0.167-0.5c-5.359-13.399-9.167-28.649-9.167-45.167 0-20.101 4.537-40.656 13.75-60.167 8.483-17.965 19.711-35.29 34.25-51.333 23.573-25.978 50.785-45.831 81.417-58.417 0.025-0.010 0.058 0.010 0.083 0 29.518-12.287 61.617-18.667 95.417-18.667 48.54 0 99.275 11.379 151.583 33.667 51.522 21.953 102.691 51.394 153.083 88.083 50.374 36.795 98.193 77.547 143.667 122.583l0.085 0.166 0.085 0.085c45.036 45.473 85.771 93.178 122.167 143.167l0.171 0.171c36.139 50.242 65.504 100.866 87.083 151.667v0.085c21.823 51.842 33.242 102.698 33.242 151.994 0 32.75-5.853 64.52-17.667 94.083-11.977 30.394-31.078 58.3-56.667 82.5-31.821 31.192-70.455 49.083-110.833 49.083zM785.5 842.667c22.636 0 43.517-8.538 66.25-30.917l0.503-0.5c19.492-18.388 32.78-38.14 41.25-59.667l0.085-0.083v-0.083c8.641-21.616 13.078-45.168 13.078-70.417 0-39.45-9.121-81.734-28.25-127.167-19.378-45.595-46.273-92.162-80.083-139.167-34.357-47.178-72.84-92.321-115.583-135.5-43.273-42.857-88.491-81.448-136.25-116.333-46.887-34.137-93.889-61.056-140.5-80.917-45.825-19.525-88-28.583-126.5-28.583-25.905 0-49.255 4.724-70.917 13.75h-0.083l-0.083 0.085c-21.353 8.749-40.22 22.194-58.417 42.248-10.207 11.263-17.727 22.911-23.75 35.667-5.293 11.21-7.667 22.214-7.667 32.833 0 7.144 1.452 13.174 4.417 20.75 2.161 4.782 5.045 8.627 12.083 13.5l0.167 0.166 141.417 100.337c9.127 6.162 16.935 10.515 23.417 13.167 6.172 2.525 10.301 3.167 13.917 3.167 4.693 0 7.9-0.823 13.667-4.333l0.917-0.583 0.917-0.418c5.626-2.935 13.759-9.008 22.917-18.167l0.083-0.085 32.333-31.917c9.493-9.493 25.384-16.667 40.167-16.667 6.21 0 14.042 0.828 21.833 3.75l0.75 0.252 0.667 0.333c4.001 1.715 6.832 3.049 6.917 3.084l1.583 0.667 1.5 0.75c17.641 9.339 37.398 23.407 60.75 43.167h0.085c23.478 19.934 46.167 41.35 69.5 64.25l0.418 0.418c22.761 23.199 43.722 46.351 63.25 68.917l0.085 0.166 0.166 0.085c19.605 23.169 33.853 42.62 43.333 60l1.333 2.5 0.916 2.667c-0.158-0.476 1.104 2.362 3 7.417l0.667 1.75 0.418 1.75c1.31 5.239 2.25 11.503 2.25 17.583-0.007 13.489-5.995 29.483-16.174 39.662l-32.25 33.5-0.166 0.25c-8.669 8.669-15 16.929-18.667 23.417l-0.252 0.417-0.333 0.417c-3.296 5.415-4.25 9.649-4.25 13.667 0 2.493 0.846 7.612 3.334 13.417l0.167 0.25 0.085 0.25c2.711 6.626 6.906 14.29 13.417 23.333l0.085 0.083 99.252 139.917c4.353 6.287 9.109 9.973 15.667 13l0.252 0.083 0.166 0.167c6.007 2.887 13.367 4.5 20.743 4.5z" />
<glyph unicode="&#xe915;" glyph-name="clock" horiz-adv-x="970" d="M485.053 879.158c-237.704 0-431.158-193.454-431.158-431.158s193.454-431.158 431.158-431.158c237.704 0 431.158 193.454 431.158 431.158s-193.454 431.158-431.158 431.158zM485.053 825.263c208.544 0 377.263-168.719 377.263-377.263s-168.719-377.263-377.263-377.263c-208.544 0-377.263 168.719-377.263 377.263s168.719 377.263 377.263 377.263zM470.105 656.421c-14.883 0-26.947-12.065-26.947-26.947v0-165.684c0-38.012 20.228-73.41 52.842-92.737l125.263-74.737c3.94-2.385 8.701-3.797 13.791-3.797 9.796 0 18.371 5.227 23.088 13.044l0.068 0.121c2.385 3.94 3.797 8.701 3.797 13.791 0 9.796-5.227 18.371-13.044 23.088l-0.121 0.068-125.263 74.737c-0.016 0-0.034 0-0.053 0s-0.037 0-0.055 0h0.003c-11.041 6.542-26.421 33.503-26.421 46.421v165.684c0 14.883-12.065 26.947-26.947 26.947v0z" />
<glyph unicode="&#xe916;" glyph-name="teacher" d="M513 904.333c-35.359 0.064-70.744-9.468-99.778-28.556l-256.778-167.667c-98.614-64.38-98.614-211.064 0-275.444l256.778-167.667c58.068-38.174 141.266-38.175 199.333 0l255.556 167.667c98.138 64.403 98.138 210.597 0 275l-255.444 167.556c-29.041 19.361-64.308 29.048-99.667 29.111zM512.778 845c25.654-0.043 51.295-5.752 68.333-17.111-0.087 0.037-0.014 0 0.058-0.036l0.163-0.075 255.556-167.667c65.702-43.117 65.702-136.772 0-179.889l-255.555-167.667c-34.091-22.412-102.797-22.412-136.889 0-0.043 0.044-0.079 0.081-0.115 0.118l0.004-0.005-256.778 167.664c-66.078 43.14-66.078 137.083 0 180.222l256.778 167.667c0.016 0 0.036 0 0.055 0s0.039 0 0.058 0h-0.003c17.046 11.206 42.679 16.821 68.334 16.778zM240.222 430.444c0 0 0 0 0 0-15.67 0-28.381-12.672-28.444-28.327v-0.006l-0.444-200.111c0-0.017 0-0.037 0-0.057s0-0.040 0-0.060v0.003c0-68.819 47.302-134.508 112.444-156.222l136.111-45.222c0.043-0.044 0.079-0.081 0.115-0.118l-0.004 0.005c32.281-10.565 71.338-10.427 103.778 0 0.233 0.112 0.306 0.15 0.378 0.188l-0.156-0.075 136.111 45.222c0.017 0 0.037 0 0.057 0s0.040 0 0.060 0h-0.003c65.142 21.714 112.444 87.403 112.444 156.222v198.003c0 15.709-12.735 28.444-28.444 28.444v0c-15.709 0-28.444-12.735-28.444-28.444v0-198c0-39.554-36.298-89.914-73.556-102.333l-135.889-45.111c-15.347-4.933-53.904-4.795-68.556 0l0.111-0.114-136.114 45.225c-37.228 12.409-73.498 62.683-73.556 102.222v0.114l0.444 200c0 0.033 0 0.072 0 0.111 0 15.709-12.735 28.444-28.444 28.444 0 0 0 0 0 0v0zM913.111 604.444c-15.709 0-28.444-12.735-28.444-28.444v0-256c0-15.709 12.735-28.444 28.444-28.444v0c15.709 0 28.444 12.735 28.444 28.444v0 256c0 15.709-12.735 28.444-28.444 28.444v0z" />
<glyph unicode="&#xe917;" glyph-name="note-text" d="M341.333 903.111c-15.709 0-28.444-12.735-28.444-28.444v0-128c0-15.709 12.735-28.444 28.444-28.444v0c15.709 0 28.444 12.735 28.444 28.444v0 128c0 15.709-12.735 28.444-28.444 28.444v0zM682.667 903.111c-15.709 0-28.444-12.735-28.444-28.444v0-128c0-15.709 12.735-28.444 28.444-28.444v0c15.709 0 28.444 12.735 28.444 28.444v0 128c0 15.709-12.735 28.444-28.444 28.444v0zM341.333 839.111c-80.085 0-142.667-23.744-183.556-67.778s-58.222-105.259-58.222-174v-362.667c0-68.741 17.334-129.966 58.222-174s103.471-67.778 183.556-67.778h341.333c80.085 0 142.667 23.744 183.556 67.778s58.222 105.259 58.222 174v362.667c0 68.741-17.334 129.966-58.222 174s-103.471 67.778-183.556 67.778zM341.333 782.222h341.333c69.249 0 113.333-18.923 141.778-49.556s43.111-76.074 43.111-135.333v-362.667c0-59.259-14.666-104.701-43.111-135.333s-72.529-49.556-141.778-49.556h-341.333c-69.249 0-113.333 18.923-141.778 49.556s-43.111 76.074-43.111 135.333v362.667c0 59.259 14.666 104.701 43.111 135.333s72.529 49.556 141.778 49.556zM341.333 519.111c-15.709 0-28.444-12.735-28.444-28.444v0c0-15.709 12.735-28.444 28.444-28.444v0h341.333c15.709 0 28.444 12.735 28.444 28.444v0c0 15.709-12.735 28.444-28.444 28.444v0zM341.333 305.778c-15.709 0-28.444-12.735-28.444-28.444v0c0-15.709 12.735-28.444 28.444-28.444v0h170.667c15.709 0 28.444 12.735 28.444 28.444v0c0 15.709-12.735 28.444-28.444 28.444v0z" />
<glyph unicode="&#xe918;" glyph-name="save" d="M289.778 840.556c-70.057 0-128-57.481-128-128v-591.778c0-65.472 79.798-104.599 131.222-63.889l218.222 170.778 218.333-170.889c25.799-20.144 59.826-21.737 85.667-9s45.355 40.654 45 73.333v591.444c0 70.057-57.481 128-128 128zM289.778 772.333h442.444c33.588 0 59.778-26.581 59.778-59.778v-591.778c0-0.050 0-0.109 0-0.168s0-0.118 0-0.177v0.009c0.074-6.574-2.649-9.355-6.889-11.444s-8.208-2.62-13.556 1.555l-239.333 187.336c-5.739 4.531-13.078 7.267-21.056 7.267s-15.316-2.737-21.128-7.322l0.072 0.055-239.333-187.333c-0.031-0.031-0.067-0.068-0.103-0.106l-0.008-0.008c-10.016-7.927-20.667-2.699-20.667 10.336v591.778c0 33.588 26.581 59.778 59.778 59.778z" />
<glyph unicode="&#xe919;" glyph-name="search" d="M533.364 909.545c-242.724 0-440.182-197.548-440.182-440.273s197.458-440.182 440.182-440.182c242.727 0 440.273 197.455 440.273 440.182 0 242.725-197.546 440.273-440.273 440.273zM533.364 839.727c204.994 0 370.455-165.463 370.455-370.455 0-204.994-165.461-370.364-370.455-370.364-204.991 0-370.364 165.37-370.364 370.364 0 204.992 165.373 370.455 370.364 370.455zM170.727 141.545c-0.025 0-0.056 0-0.086 0-9.619 0-18.329-3.89-24.643-10.183l0.001 0.001-85.273-85.364c-6.316-6.317-10.222-15.043-10.222-24.682s3.906-18.365 10.222-24.682v0c6.317-6.316 15.043-10.222 24.682-10.222s18.365 3.906 24.682 10.222l85.364 85.273c6.343 6.322 10.268 15.066 10.268 24.727s-3.925 18.406-10.267 24.726l-0.001 0.001c-6.313 6.292-15.023 10.182-24.642 10.182-0.030 0-0.060 0-0.090 0h0.005z" />
<glyph unicode="&#xe91a;" glyph-name="add-circle" d="M512.055 960c-281.417 0-512.055-230.638-512.055-512.055s230.638-511.945 512.055-511.945c281.416 0 511.945 230.526 511.945 511.945s-230.529 512.055-511.945 512.055zM512.055 875.447c235.296 0 427.391-192.204 427.391-427.502s-192.096-427.391-427.391-427.391c-235.297 0-427.502 192.093-427.502 427.391s192.204 427.502 427.502 427.502zM324.122 490.222c-23.349 0-42.277-18.928-42.277-42.277v0c0-23.349 18.928-42.277 42.277-42.277v0h375.757c23.349 0 42.277 18.928 42.277 42.277v0c0 23.349-18.928 42.277-42.277 42.277v0zM511.945 678.155c-23.349 0-42.277-18.928-42.277-42.277v0-375.757c0-23.349 18.928-42.277 42.277-42.277v0c23.349 0 42.277 18.928 42.277 42.277v0 375.757c0 23.349-18.928 42.277-42.277 42.277v0z" />
<glyph unicode="&#xe91b;" glyph-name="menu" horiz-adv-x="1170" d="M54.857 960c-30.297 0-54.857-24.56-54.857-54.857v0c0-30.297 24.56-54.857 54.857-54.857v0h1060.571c30.297 0 54.857 24.56 54.857 54.857v0c0 30.297-24.56 54.857-54.857 54.857v0zM54.857 45.714c-30.297 0-54.857-24.56-54.857-54.857v0c0-30.297 24.56-54.857 54.857-54.857v0h1060.571c30.297 0 54.857 24.56 54.857 54.857v0c0 30.297-24.56 54.857-54.857 54.857v0zM54.857 502.857c-30.297 0-54.857-24.56-54.857-54.857v0c0-30.297 24.56-54.857 54.857-54.857v0h1060.571c30.297 0 54.857 24.56 54.857 54.857v0c0 30.297-24.56 54.857-54.857 54.857v0z" />
<glyph unicode="&#xe91c;" glyph-name="arrow-right" d="M300.417 607.917c-0.528 0.031-1.146 0.049-1.768 0.049-8.202 0-15.682-3.085-21.345-8.159l0.030 0.027c-6.548-5.884-10.648-14.38-10.648-23.834 0-8.21 3.092-15.697 8.174-21.362l-0.026 0.030 175.667-196c32.319-36.063 90.681-36.063 123 0l175.667 196c5.056 5.635 8.148 13.123 8.148 21.332 0 9.454-4.1 17.95-10.618 23.808l-0.029 0.026c-5.635 5.056-13.123 8.148-21.332 8.148-9.454 0-17.95-4.1-23.808-10.618l-175.609-195.946c-9.161-10.222-18.672-10.222-27.833 0l-175.583 195.917c-5.505 6.117-13.287 10.091-22 10.58l-0.084 0.004z" />
<glyph unicode="&#xe91d;" glyph-name="eye" d="M906.667 569.613c-98.56 154.88-242.773 244.053-394.667 244.053-75.947 0-149.76-22.187-217.173-63.573-67.413-41.813-128-102.827-177.493-180.48-42.667-66.987-42.667-175.787 0-242.775 98.56-155.307 242.773-244.053 394.667-244.053 75.947 0 149.76 22.187 217.173 63.573 67.413 41.813 128 102.827 177.493 180.48 42.667 66.562 42.667 175.788 0 242.775zM512 275.638c-95.573 0-172.373 77.227-172.373 172.375s76.8 172.373 172.373 172.373 172.373-77.227 172.373-172.373c0-95.148-76.8-172.375-172.373-172.375zM512.044 570c-66.987 0-121.6-54.613-121.6-122.027 0-66.988 54.613-121.602 121.6-121.602s122.028 54.613 122.028 121.602c0 66.987-55.040 122.027-122.028 122.027z" />
<glyph unicode="&#xe91e;" glyph-name="location" d="M512.125 685.25c-90.814 0-165.125-74.311-165.125-165.125s74.311-165.125 165.125-165.125c90.815 0 165.125 74.311 165.125 165.125s-74.31 165.125-165.125 165.125zM512.125 621.25c56.227 0 101.125-44.9 101.125-101.125s-44.898-101.125-101.125-101.125c-56.226 0-101.125 44.899-101.125 101.125s44.899 101.125 101.125 101.125zM512.125 906.625c-170.3 0.115-343.64-102.35-389-301.75v-0.125c-52.715-232.86 91.091-427.242 212.5-544.25h0.125c98.261-94.368 253.975-94.407 351.875 0 121.847 117.004 265.708 311.024 213 543.875-45.132 199.406-218.199 302.135-388.5 302.25zM512 842.625c145.326-0.099 287.754-82.288 326.25-252.375 45.417-200.643-80.344-373.647-194.875-483.625h-0.128c-73.595-71.030-189.037-71.062-263.125 0-114.108 109.974-239.916 283.367-194.497 484h-0.125c38.693 170.093 181.174 252.098 326.5 252z" />
<glyph unicode="&#xe91f;" glyph-name="Youtube" d="M302.931 760.108l-104.908-8.142c-58.434-4.536-106.237-47.985-115.897-105.34-24.168-143.506-24.168-289.996 0-433.505 9.66-57.351 57.463-100.803 115.897-105.335l104.908-8.144c156.174-12.124 313.063-12.124 469.24 0l104.905 8.144c58.436 4.533 106.237 47.985 115.896 105.335 24.166 143.509 24.166 289.999 0 433.505-9.66 57.355-57.46 100.804-115.896 105.34l-104.905 8.142c-156.177 12.122-313.066 12.122-469.24 0zM443.909 315.138v229.475c0 10.831 11.91 17.521 21.273 11.949l192.75-114.737c9.092-5.412 9.092-18.486 0-23.898l-192.75-114.738c-9.362-5.573-21.273 1.118-21.273 11.949z" />
<glyph unicode="&#xe920;" glyph-name="Twitter" d="M875.779 664.659c2.321 3.206-1.106 7.346-4.813 5.919-26.358-10.135-53.903-16.972-81.995-20.342 31.28 18.541 55.419 46.767 68.806 80.183 1.365 3.404-2.383 6.444-5.612 4.674-29.075-15.931-60.436-27.402-93.007-34.008-1.365-0.276-2.772 0.184-3.727 1.186-24.446 25.59-56.62 42.628-91.701 48.515-35.815 6.012-72.628 0.059-104.665-16.923s-57.488-44.034-72.359-76.912c-14.14-31.261-17.955-66.109-10.981-99.576 0.541-2.596-1.507-5.048-4.175-4.884-63.377 3.906-125.3 20.63-181.954 49.165-56.51 28.463-106.551 68.061-147.075 116.349-1.799 2.143-5.207 1.866-6.518-0.601-12.61-23.74-19.212-50.199-19.194-77.091-0.051-26.769 6.57-53.134 19.274-76.75s31.098-43.748 53.543-58.605c-23.803 0.642-47.142 6.481-68.366 17.065-2.735 1.364-6.016-0.578-5.874-3.612 1.655-35.297 14.716-70.733 37.324-97.92 24.059-28.931 57.452-48.731 94.53-56.048-14.273-4.31-29.092-6.582-44.011-6.748-8.119 0.094-16.223 0.689-24.264 1.779-2.981 0.405-5.416-2.405-4.372-5.205 11.059-29.671 30.597-55.56 56.287-74.459 27.464-20.204 60.594-31.414 94.779-32.069-57.726-45.063-128.995-69.652-202.448-69.857-7.548-0.027-15.092 0.218-22.618 0.724-4.241 0.287-6.192-5.318-2.536-7.468 71.568-42.134 153.369-64.41 236.805-64.307 61.602-0.635 122.714 10.916 179.767 33.976s108.902 57.167 152.519 100.325c43.617 43.165 78.126 94.517 101.521 151.060 23.388 56.543 35.185 117.143 34.707 178.26v19.046c0 1.253 0.594 2.432 1.604 3.187 27.136 20.329 51.002 44.599 70.799 71.974z" />
<glyph unicode="&#xe921;" glyph-name="profile-circle" d="M512 715.040c-91.089 0-165.040-74.382-165.040-165.040 0-88.698 70.858-161.631 159.12-164.64 0.429-0.021 0.932-0.034 1.438-0.034 1.213 0 2.409 0.070 3.585 0.207l-0.143-0.014c0.463 0.057 2.382-0.032 1.6 0.082 1.225-0.173 2.64-0.272 4.078-0.272 0.479 0 0.955 0.011 1.429 0.033l-0.067-0.002c88.266 3.009 158.62 75.913 159.12 164.4 0 0.036 0 0.078 0 0.121s0 0.085 0 0.127v-0.007c0 90.771-74.35 165.040-165.12 165.040zM512 653.6c57.478 0 103.637-46.051 103.68-103.52-0.36-56.473-43.874-101.455-99.76-103.36l5.36-0.242c-6.517 0.931-11.909 0.761-18 0l4.88 0.242c-55.917 1.906-99.76 46.98-99.76 103.28 0 57.619 45.594 103.6 103.6 103.6zM512.32 339.28c-79.124-0.002-158.337-20.777-220.88-62.32-0.224-0.108-0.277-0.135-0.329-0.163l0.169 0.081c-49.47-33.288-80.68-78.661-85.92-127.92-0.108-0.969-0.17-2.092-0.17-3.229 0-8.976 3.849-17.053 9.987-22.67l0.023-0.021c78.314-71.712 182.505-115.358 296.8-115.358s218.486 43.646 296.8 115.36c6.161 5.638 10.010 13.715 10.010 22.691 0 1.137-0.062 2.26-0.182 3.366l0.012-0.137c-5.24 49.259-36.45 94.632-85.92 127.92-0.012 0-0.027 0-0.041 0s-0.029 0-0.043 0h0.002c-62.182 41.609-141.194 62.402-220.318 62.4zM512.32 275.28c68.537-0.002 136.933-16.501 186.16-49.44 30.998-20.886 45.865-44.476 52.96-67.52-65.588-54.421-147.496-89.2-239.44-89.2-91.925 0-173.858 34.802-239.44 89.2 7.086 23.017 21.95 46.572 52.88 67.44 49.688 33.004 118.343 49.522 186.88 49.52zM512 888.32c-242.818 0-440.32-197.502-440.32-440.32 0-242.816 197.502-440.32 440.32-440.32 242.816 0 440.32 197.504 440.32 440.32 0 242.818-197.504 440.32-440.32 440.32zM512 826.88c209.611 0 378.88-169.267 378.88-378.88 0-209.611-169.269-378.88-378.88-378.88-209.613 0-378.88 169.269-378.88 378.88 0 209.613 169.267 378.88 378.88 378.88z" />
<glyph unicode="&#xe922;" glyph-name="task-square" d="M527.12 606.48c-16.966 0-30.72-13.754-30.72-30.72v0c0-16.966 13.754-30.72 30.72-30.72h215.040c16.966 0 30.72 13.754 30.72 30.72v0c0 16.966-13.754 30.72-30.72 30.72v0zM404.72 667.92c-0.022 0-0.049 0-0.075 0-8.464 0-16.129-3.423-21.686-8.961l-70.399-70.399-8.96 8.96c-5.563 5.582-13.258 9.035-21.76 9.035s-16.197-3.454-21.759-9.035l-0.001-0.001c-5.582-5.563-9.035-13.258-9.035-21.76s3.454-16.197 9.035-21.759l30.721-30.721c5.563-5.581 13.258-9.034 21.76-9.034s16.197 3.453 21.759 9.033l92.161 92.161c5.582 5.563 9.035 13.258 9.035 21.76s-3.454 16.197-9.035 21.759l-0.001 0.001c-5.555 5.537-13.22 8.96-21.685 8.96-0.026 0-0.053 0-0.079 0h0.004zM527.12 319.76c-16.966 0-30.72-13.754-30.72-30.72v0c0-16.966 13.754-30.72 30.72-30.72v0h215.040c16.966 0 30.72 13.754 30.72 30.72v0c0 16.966-13.754 30.72-30.72 30.72v0zM404.72 381.2c-0.022 0-0.049 0-0.075 0-8.464 0-16.129-3.423-21.686-8.961l-70.399-70.399-8.96 8.96c-5.563 5.582-13.258 9.035-21.76 9.035s-16.197-3.454-21.759-9.035l-0.001-0.001c-5.582-5.563-9.035-13.258-9.035-21.76s3.454-16.197 9.035-21.759l30.721-30.721c5.563-5.581 13.258-9.034 21.76-9.034s16.197 3.453 21.759 9.033l92.161 92.161c5.582 5.563 9.035 13.258 9.035 21.76s-3.454 16.197-9.035 21.759l-0.001 0.001c-5.555 5.537-13.22 8.96-21.685 8.96-0.026 0-0.053 0-0.079 0h0.004zM389.12 888.32c-106.496 0-187.795-21.395-241.92-75.52s-75.52-135.424-75.52-241.92v-245.76c0-106.496 21.395-187.795 75.52-241.92s135.424-75.52 241.92-75.52h245.76c106.496 0 187.795 21.395 241.92 75.52s75.52 135.424 75.52 241.92v245.76c0 106.496-21.395 187.795-75.52 241.92s-135.424 75.52-241.92 75.52zM389.12 826.88h245.76c98.304 0 160.365-19.565 198.4-57.6s57.6-100.096 57.6-198.4v-245.76c0-98.304-19.565-160.365-57.6-198.4s-100.096-57.6-198.4-57.6h-245.76c-98.304 0-160.365 19.565-198.4 57.6s-57.6 100.096-57.6 198.4v245.76c0 98.304 19.565 160.365 57.6 198.4s100.096 57.6 198.4 57.6z" />
<glyph unicode="&#xe923;" glyph-name="briefcase" d="M307.2 724.48c-92.222 0-153.864-21.864-189.44-64.16-35.469-42.169-39.472-97.269-33.6-150.88v-0.082l30.72-327.598c0-0.060-0.001-0.13-0.001-0.201s0-0.141 0.001-0.212v0.011c4.602-42.953 15.781-88.894 52.72-122.64s94.129-51.039 180.56-51.039h327.68c86.431 0 143.701 17.294 180.64 51.040s48.118 79.687 52.72 122.64c0 0.060 0.001 0.13 0.001 0.201s0 0.141-0.001 0.212v-0.011l30.64 327.2c5.949 53.762 2.056 109.063-33.52 151.359s-97.298 64.16-189.52 64.16zM307.2 663.040h409.6c82.677 0 122.76-18.875 142.48-42.32s24.63-58.861 19.52-105.040c-0.001 0.026-0.030-0.137-0.057-0.3l-0.025-0.18-30.72-327.44c-4.007-37.215-11.88-64.421-32.96-83.68-21.12-19.297-60.97-34.96-139.198-34.96h-327.68c-78.228 0-117.998 15.663-139.12 34.96s-29.040 46.511-33.040 83.84l-30.72 327.28c0.001 0.071 0.001 0.156 0.001 0.24s0 0.169-0.001 0.253v-0.013c-5.11 46.179-0.28 81.595 19.44 105.040s59.803 42.32 142.48 42.32zM479.2 888.32c-70.112 0-116.008-17.002-139.92-51.6s-21.84-73.91-21.84-110.16v-32.8c0-16.966 13.754-30.72 30.72-30.72v0c16.966 0 30.72 13.754 30.72 30.72v0 32.8c0 36.25 2.104 62.387 10.96 75.2s28.4 25.12 89.36 25.12h65.6c60.96 0 80.504-12.307 89.36-25.12s10.96-38.95 10.96-75.2v-32.8c0-16.966 13.754-30.72 30.72-30.72v0c16.966 0 30.72 13.754 30.72 30.72v0 32.8c0 36.25 2.072 75.562-21.84 110.16s-69.808 51.6-139.92 51.6zM471.040 478.72c-10.24 0-18.301 0.172-27.040-0.8s-20.759-3.479-30.56-13.28c-9.801-9.801-12.309-21.821-13.28-30.56s-0.8-16.8-0.8-27.040v-42.16c0-22.511-1.716-49.547 16.24-74.88s51.299-36.56 96.4-36.56c45.335 0 78.867 11.388 96.72 36.88s15.92 52.543 15.92 74.96v41.76c0 10.24 0.172 18.301-0.8 27.040s-3.479 20.759-13.28 30.56c-9.801 9.801-21.821 12.309-30.56 13.28s-16.8 0.8-27.040 0.8zM471.040 417.28h81.92c5.039 0 6.581-0.168 10-0.242 0.074-3.419 0.242-4.961 0.242-10v-41.76c0-22.229-2.071-35.783-4.8-39.68-2.731-3.895-10.226-10.718-46.402-10.718-35.999 0-43.591 6.789-46.32 10.64s-4.88 17.225-4.88 39.36v42.16c0 5.039 0.168 6.581 0.242 10 3.417 0.074 4.959 0.242 9.998 0.242zM889.2 513.84c-90.303-65.675-193.474-104.776-299.12-118.080-15.234-1.974-26.881-14.866-26.881-30.479 0-1.354 0.088-2.687 0.257-3.995l-0.016 0.154c1.974-15.234 14.866-26.881 30.479-26.881 1.354 0 2.687 0.088 3.995 0.257l-0.154-0.016c115.537 14.549 228.668 57.33 327.6 129.28 7.697 5.651 12.637 14.666 12.637 24.834 0 6.817-2.22 13.115-5.977 18.21l0.059-0.084c-5.651 7.705-14.67 12.652-24.845 12.652-6.777 0-13.042-2.195-18.122-5.912l0.087 0.060zM122.080 508.080c-8.213-1.572-15.123-6.232-19.613-12.699l-0.067-0.101c-3.366-4.857-5.378-10.875-5.378-17.363 0-10.487 5.255-19.747 13.275-25.29l0.103-0.067c96.295-65.909 205.145-105.801 316.24-118.24 1.017-0.119 2.196-0.188 3.39-0.188 15.764 0 28.755 11.874 30.517 27.165l0.013 0.142c0.125 1.041 0.197 2.247 0.197 3.469 0 15.767-11.878 28.76-27.175 30.518l-0.142 0.013c-101.074 11.317-200.296 47.592-288.32 107.84-4.845 3.343-10.843 5.34-17.308 5.34-2.027 0-4.009-0.196-5.927-0.571l0.194 0.032z" />
<glyph unicode="&#xe924;" glyph-name="home-2" d="M490.8 888.64c-43.020-1.010-85.77-14.763-119.76-41.2l-220.72-172.080c-47.158-36.706-78.64-100.664-78.64-160.16v-303.52c0-111.711 91.4-203.6 203.2-203.6h474.24c111.8 0 203.2 91.826 203.2 203.2v298.16c0 63.272-35.073 130.372-86.88 166.48l-253.040 177.36c-0.012 0-0.027 0-0.041 0s-0.029 0-0.043 0h0.002c-35.205 24.645-78.498 36.37-121.518 35.36zM492.32 824.96c31.22 0.73 62.663-6.504 84.8-22l253.12-177.36c0.021-0.021 0.048-0.047 0.075-0.073l0.007-0.007c29.292-20.417 60.558-80.226 60.558-116.080v-298.16c0-77.861-63.505-141.76-141.76-141.76h-474.24c-78.255 0-141.76 63.817-141.76 142.16v303.52c0 33.056 28.337 91.036 54.88 111.68 0.027 0.027 0.053 0.053 0.079 0.079l0.001 0.001 220.72 172c21.306 16.571 52.3 25.27 83.52 26zM512 356.24c-16.966 0-30.72-13.754-30.72-30.72v0-122.88c0-16.966 13.754-30.72 30.72-30.72v0c16.966 0 30.72 13.754 30.72 30.72v0 122.88c0 16.966-13.754 30.72-30.72 30.72v0z" />
<glyph unicode="&#xe925;" glyph-name="add" d="M256 480c-17.673 0-32-14.327-32-32v0c0-17.673 14.327-32 32-32v0h512c17.673 0 32 14.327 32 32v0c0 17.673-14.327 32-32 32v0zM512 736c-17.673 0-32-14.327-32-32v0-512c0-17.673 14.327-32 32-32v0c17.673 0 32 14.327 32 32v0 512c0 17.673-14.327 32-32 32v0z" />
<glyph unicode="&#xe926;" glyph-name="arrow-left" d="M607.692 746.154c-0.043 0-0.094 0-0.145 0-16.278 0-31.018-6.583-41.703-17.233l0.002 0.002c-10.734-10.698-17.376-25.496-17.376-41.846s6.642-31.148 17.374-41.844l197.387-197.233-197.385-197.231c-10.688-10.69-17.299-25.458-17.299-41.769s6.611-31.079 17.299-41.769v0c10.698-10.734 25.496-17.376 41.846-17.376s31.148 6.642 41.845 17.374l238.925 239.079c10.687 10.691 17.296 25.458 17.296 41.769s-6.61 31.078-17.296 41.769l-238.923 239.077c-10.684 10.648-25.424 17.231-41.701 17.231-0.051 0-0.102 0-0.153 0h0.008zM177.231 507.077c-32.627 0-59.077-26.45-59.077-59.077v0c0-32.627 26.45-59.077 59.077-59.077v0h662.769c32.627 0 59.077 26.45 59.077 59.077v0c0 32.627-26.45 59.077-59.077 59.077v0z" />
<glyph unicode="&#xe927;" glyph-name="cross" d="M884.364 890.182c-0.051 0-0.111 0-0.171 0-19.237 0-36.657-7.78-49.285-20.366l0.002 0.002-94.364-94.545-650.364-650.182c-12.686-12.643-20.535-30.132-20.535-49.455s7.849-36.811 20.533-49.453l0.002-0.002c12.643-12.686 30.132-20.535 49.455-20.535s36.811 7.849 49.453 20.533l744.729 744.729c12.686 12.643 20.535 30.132 20.535 49.455s-7.849 36.811-20.533 49.453l-0.002 0.002c-12.626 12.584-30.046 20.364-49.283 20.364-0.060 0-0.12 0-0.181 0h0.009zM139.636 890.182c-0.051 0-0.111 0-0.171 0-19.237 0-36.657-7.78-49.285-20.366l0.002 0.002c-12.686-12.643-20.535-30.132-20.535-49.455s7.849-36.811 20.533-49.453l744.729-744.729c12.643-12.686 30.132-20.535 49.455-20.535s36.811 7.849 49.453 20.533l0.002 0.002c12.686 12.643 20.535 30.132 20.535 49.455s-7.849 36.811-20.533 49.453l-744.729 744.729c-12.626 12.584-30.046 20.364-49.283 20.364-0.060 0-0.12 0-0.181 0h0.009z" />
<glyph unicode="&#xe928;" glyph-name="personalcard" d="M298.667 864c-88 0-151.277-9.943-193.333-52s-52-105.333-52-193.333v-341.333c0-88 9.943-151.277 52-193.333s105.333-52 193.333-52h426.667c88 0 151.277 9.943 193.333 52s52 105.333 52 193.333v341.333c0 88-9.943 151.277-52 193.333s-105.333 52-193.333 52zM298.667 800h426.667c82.667 0 126.057-11.39 148-33.333s33.333-65.333 33.333-148v-341.333c0-82.667-11.39-126.057-33.333-148s-65.333-33.333-148-33.333h-426.667c-82.667 0-126.057 11.39-148 33.333s-33.333 65.333-33.333 148v341.333c0 82.667 11.39 126.057 33.333 148s65.333 33.333 148 33.333zM597.333 650.667c-17.673 0-32-14.327-32-32v0c0-17.673 14.327-32 32-32v0h213.333c17.673 0 32 14.327 32 32v0c0 17.673-14.327 32-32 32v0zM640 480c-17.673 0-32-14.327-32-32v0c0-17.673 14.327-32 32-32v0h170.667c17.673 0 32 14.327 32 32v0c0 17.673-14.327 32-32 32v0zM725.333 309.333c-17.673 0-32-14.327-32-32v0c0-17.673 14.327-32 32-32v0h85.333c17.673 0 32 14.327 32 32v0c0 17.673-14.327 32-32 32v0zM362.75 664.667c-59.945 0-109.25-49.305-109.25-109.25s49.304-109.167 109.25-109.167c59.946 0 109.167 49.222 109.167 109.167s-49.222 109.25-109.167 109.25zM362.75 600.667c25.357 0 45.167-19.893 45.167-45.25s-19.811-45.167-45.167-45.167c-25.357 0-45.25 19.81-45.25 45.167s19.893 45.25 45.25 45.25zM327.083 411.083c-76.614-7.435-138.154-67.891-145.583-144.833-0.094-0.92-0.147-1.987-0.147-3.067 0-16.581 12.61-30.216 28.763-31.838l0.134-0.011c0.92-0.094 1.987-0.147 3.067-0.147 16.581 0 30.216 12.61 31.838 28.763l0.011 0.134c4.515 46.764 41.085 82.787 88.167 87.333 19.698 1.931 39.394 1.919 58.583 0-0.112 0.021-0.001-0.008 0.111-0.037l0.222-0.048c46.793-4.195 83.4-40.472 87.917-87.25 1.633-16.287 15.269-28.897 31.849-28.897 1.080 0 2.148 0.054 3.2 0.158l-0.133-0.011c16.287 1.633 28.897 15.269 28.897 31.849 0 1.080-0.054 2.148-0.158 3.2l0.011-0.133c-7.43 76.955-68.977 137.935-145.917 144.833-23.343 2.312-47.068 2.316-70.75 0z" />
<glyph unicode="&#xe929;" glyph-name="message-minus" d="M341.333 906.667c-90.667 0-164.458-23.124-214.667-73.333s-73.333-124-73.333-214.667v-554.667c0-40.921 33.745-74.667 74.667-74.667h554.667c90.667 0 164.458 23.124 214.667 73.333s73.333 124 73.333 214.667v341.333c0 90.667-23.124 164.458-73.333 214.667s-124 73.333-214.667 73.333zM341.333 842.667h341.333c80 0 134.209-19.543 169.333-54.667s54.667-89.333 54.667-169.333v-341.333c0-80-19.543-134.209-54.667-169.333s-89.333-54.667-169.333-54.667h-554.667c-6.012 0-10.667 4.655-10.667 10.667v554.667c0 80 19.543 134.209 54.667 169.333s89.333 54.667 169.333 54.667zM362.667 480c-17.673 0-32-14.327-32-32v0c0-17.673 14.327-32 32-32v0h298.667c17.673 0 32 14.327 32 32v0c0 17.673-14.327 32-32 32v0z" />
<glyph unicode="&#xe92a;" glyph-name="eye-closed" horiz-adv-x="983" d="M840.921 750.038c11.997 11.997 11.997 31.447 0 43.445s-31.445 11.997-43.442 0l-655.361-655.361c-11.997-11.997-11.997-31.445 0-43.442s31.448-11.997 43.445 0l124.314 124.314c53.978-24.9 115.775-41.153 181.643-41.153 107.225 0 203.653 43.065 273.138 96.395 34.787 26.698 63.332 56.349 83.358 85.209 19.644 28.307 32.625 58.073 32.625 84.636s-12.98 56.328-32.625 84.636c-20.025 28.859-48.57 58.512-83.358 85.211-11.084 8.507-22.856 16.752-35.242 24.603l111.505 111.508zM619.672 528.785l-44.974-44.97c5.759-12.034 8.983-25.506 8.983-39.735 0-50.897-41.263-92.16-92.16-92.16-14.23 0-27.701 3.224-39.735 8.983l-44.972-44.974c24.283-16.081 53.401-25.448 84.707-25.448 84.832 0 153.6 68.768 153.6 153.6 0 31.306-9.368 60.424-25.448 84.705zM518.93 595.241c3.432-0.618 6.975 0.399 9.441 2.864l79.856 79.853c5.419 5.421 3.17 14.633-4.215 16.694-35.529 9.911-73.29 15.668-112.493 15.668-107.224 0-203.653-43.065-273.137-96.394-34.787-26.699-63.332-56.352-83.359-85.211-19.646-28.307-32.624-58.073-32.624-84.636s12.979-56.328 32.624-84.636c17.093-24.629 40.39-49.84 68.477-73.298 4.008-3.346 9.898-3.015 13.59 0.676l120.403 120.406c2.466 2.466 3.482 6.009 2.864 9.441-1.602 8.897-2.438 18.055-2.438 27.41 0 84.832 68.769 153.6 153.6 153.6 9.355 0 18.514-0.836 27.41-2.439z" />
<glyph unicode="&#xe92b;" glyph-name="instagram" d="M640 448c0-70.692-57.308-128-128-128s-128 57.308-128 128c0 70.692 57.308 128 128 128v0c70.659-0.083 127.917-57.341 128-127.992v-0.008zM912 624v-352c-0.145-123.654-100.346-223.855-223.986-224h-352.014c-123.654 0.145-223.855 100.346-224 223.986v352.014c0.145 123.654 100.346 223.855 223.986 224h352.014c123.654-0.145 223.855-100.346 224-223.986v-0.014zM704 448c0 106.039-85.961 192-192 192s-192-85.961-192-192c0-106.039 85.961-192 192-192v0c105.989 0.124 191.876 86.011 192 191.988v0.012zM768 656c0 26.51-21.49 48-48 48s-48-21.49-48-48c0-26.51 21.49-48 48-48v0c26.51 0 48 21.49 48 48v0z" />
<glyph unicode="&#xe92c;" glyph-name="call" d="M238.5 906.667c-40.378 0-79.013-17.892-110.833-49.083-25.572-24.183-44.688-52.047-56.667-82.417-0.010-0.025 0.010-0.058 0-0.083-11.813-29.563-17.667-61.333-17.667-94.083 0-49.296 11.419-100.153 33.25-152v-0.085c21.579-50.8 50.944-101.425 87.083-151.667l0.166-0.171c36.395-49.989 77.131-97.693 122.167-143.167l0.083-0.085 0.083-0.166c45.473-45.036 93.293-85.789 143.667-122.583 50.393-36.689 101.561-66.13 153.083-88.083 52.308-22.288 103.044-33.667 151.583-33.667 33.8 0 65.899 6.379 95.417 18.667h0.085c30.631 12.586 57.844 32.438 81.417 58.417 14.539 16.044 25.767 33.369 34.25 51.333 9.213 19.51 13.75 40.066 13.75 60.167 0 16.518-3.807 31.768-9.167 45.167l-0.166 0.5-0.252 0.5c-7.168 16.291-19.397 30.146-34.25 40.5l-0.085 0.085-141.666 100.583c-11.941 8.12-23.603 14.781-35.75 19.75-12.602 5.155-25.485 8-38.083 8-16.344 0-32.381-5.244-46.083-13.417-13.56-7.259-25.721-16.971-37.583-28.833l-29.333-29c-0.488 0.226-1.010 0.41-1.583 0.667-11.371 6.046-28.166 17.551-49.083 35.25v-0.085c-21.607 18.345-43.082 38.595-65.667 60.75l-0.166 0.166c-0.090 0.090-0.162 0.162-0.252 0.252-21.349 21.782-41.162 43.684-59.833 65.25l-0.25 0.333c-17.529 20.765-29.498 37.694-35.414 48.423-0.177 0.418-0.345 0.982-0.5 1.333l29.667 30.833-0.5-0.417c11.662 11.662 21.44 23.717 28.833 36.667 8.505 14.119 13.417 30.188 13.417 46.5 0 13.693-3.409 26.49-8.583 38.583-4.956 12.004-11.754 23.852-20.5 36l-98.75 139.25c-10.969 15.759-25.726 27.231-41.25 34.417-15.23 7.249-31.68 10.75-48.083 10.75zM238.5 842.667c7.375 0 14.735-1.613 20.75-4.5l0.167-0.167 0.25-0.083c6.558-3.027 11.314-6.713 15.667-13l0.083-0.167 99.25-139.833c6.511-9.043 10.706-16.707 13.417-23.333l0.083-0.25 0.167-0.25c2.488-5.805 3.333-10.924 3.333-13.417 0-4.018-0.954-8.252-4.25-13.667l-0.333-0.417-0.25-0.417c-3.667-6.487-9.998-14.748-18.667-23.417l-0.167-0.25-32.25-33.5c-10.179-10.179-16.167-26.173-16.167-39.667 0-6.080 0.94-12.344 2.25-17.583l0.417-1.75 0.667-1.75c1.896-5.055 3.159-7.892 3-7.417l0.917-2.667 1.333-2.5c9.48-17.38 23.728-36.831 43.333-60l0.167-0.085 0.083-0.166c19.528-22.565 40.489-45.718 63.25-68.917l0.418-0.418c23.333-22.9 46.022-44.316 69.5-64.25h0.085c23.352-19.759 43.109-33.828 60.75-43.167l1.5-0.75 1.583-0.667c0.085-0.034 2.916-1.369 6.917-3.084l0.667-0.333 0.75-0.252c7.791-2.922 15.623-3.75 21.833-3.75 14.783 0 30.674 7.174 40.167 16.667l32.419 32.002c9.158 9.158 17.291 15.231 22.917 18.167l0.916 0.418 0.916 0.583c5.767 3.51 8.973 4.333 13.667 4.333 3.616 0 7.745-0.642 13.917-3.167 6.626-2.711 14.524-7.113 23.917-13.5l141.083-100.166c7.038-4.873 9.922-8.718 12.083-13.5 2.965-7.576 4.417-13.606 4.417-20.75 0-10.619-2.373-21.624-7.667-32.833-6.023-12.755-13.543-24.404-23.75-35.667-18.197-20.054-37.064-33.499-58.417-42.25l-0.085-0.085h-0.085c-21.663-9.023-45.013-13.747-70.918-13.747-38.5 0-80.675 9.058-126.5 28.583-46.611 19.86-93.613 46.78-140.5 80.917-47.759 34.885-92.977 73.476-136.25 116.333-42.743 43.179-81.227 88.322-115.583 135.5l-0.083 0.085c-33.777 46.969-60.636 93.518-80 139.081-19.129 45.432-28.25 87.716-28.25 127.167 0 25.249 4.437 48.801 13.083 70.417v0.083l0.083 0.083c8.47 21.527 21.758 41.279 41.25 59.667l0.5 0.5c22.733 22.378 43.614 30.917 66.25 30.917z" />
<glyph unicode="&#xe92d;" glyph-name="notifications" d="M962.347 377.088l-81.067 291.669c-48.191 169.272-201.441 291.146-383.157 291.146-189.046 0-347.284-131.905-387.7-308.7l-0.514-2.67-62.763-282.24c-3.231-13.912-5.083-29.886-5.083-46.293 0-117.821 95.513-213.333 213.333-213.333 0.002 0 0.004 0 0.006 0h47.53c20.459-98.177 106.272-170.881 209.067-170.881s188.608 72.703 208.824 169.494l0.242 1.387h35.755c0.004 0 0.010 0 0.015 0 117.821 0 213.333 95.513 213.333 213.333 0 20.319-2.841 39.975-8.147 58.592l0.367-1.504zM512 21.333c-55.186 0.236-102.107 35.359-119.868 84.442l-0.282 0.891h240.299c-18.042-49.975-64.964-85.097-120.121-85.333h-0.029zM858.709 242.56c-23.427-30.846-60.126-50.561-101.43-50.561-0.176 0-0.352 0-0.528 0.001h-501.349c-70.683 0.012-127.978 57.315-127.978 128 0 9.844 1.111 19.429 3.215 28.635l-0.165-0.859 62.72 282.283c32.144 140.963 156.431 244.569 304.917 244.569 142.733 0 263.107-95.734 300.412-226.495l0.537-2.203 81.067-291.669c3.024-10.327 4.764-22.191 4.764-34.462 0-29.192-9.848-56.084-26.402-77.535l0.219 0.295z" />
<glyph unicode="&#xe92e;" glyph-name="note" d="M565.25 885.333c-31.769 0.569-60.909-3.32-87.75-12.583-53.613-18.502-94.601-59.267-122.167-116.167-14.34-29.159-25.191-62.875-34.083-100.667l-41.75-178.833c-21.863-93.308-19.913-169.851 17.083-229.417 36.997-59.567 104.702-95.314 197.75-117.417l71.583-17.083c25.934-6.26 50.412-10.367 73.583-12.25 72.021-6.925 133.891 7.077 180.25 46.75s74.991 100.716 93.75 181.333l41.833 178.333c21.881 93.33 20.022 169.913-17 229.583s-104.869 95.453-198.417 117.333c-0.013 0-0.028 0-0.043 0s-0.030 0-0.045 0h0.002l-71.252 16.667c-37.238 8.804-71.586 13.848-103.329 14.417zM564.5 821.167c25.791-0.485 55.523-4.547 89.5-12.583 0.013 0 0.028 0 0.043 0s0.030 0 0.045 0h-0.002l71.248-16.667c85.225-19.933 134.058-49.221 158.583-88.75s29.015-96.235 9.083-181.25l-41.833-178.333c0-0.013 0-0.028 0-0.043s0-0.030 0-0.045v0.002c-17.081-73.409-41.706-120.47-73-147.25s-71.401-37.542-132.5-31.667c-0.015 0.008-0.214 0.038-0.414 0.066l-0.17 0.020c-19.356 1.548-40.783 5.106-64.167 10.75-0.013 0-0.028 0-0.043 0s-0.030 0-0.045 0h0.002l-71.665 17.083c-84.829 20.139-133.628 49.409-158.167 88.917s-29.178 96.085-9.25 181.083l41.833 178.75v0.083c8.17 34.702 17.917 64.125 29.167 87-0.056-0.126-0.028-0.072-0.001-0.017l0.084 0.184c22.355 46.237 48.706 71.023 85.583 83.75 18.439 6.363 40.292 9.401 66.083 8.917zM378 773.75c-17.767-3.361-35.558-8.425-53.667-14.167-0.333-0.075-0.444-0.104-0.556-0.133l0.223 0.050-67.417-22.167c-88.661-28.616-151.486-68.735-182.5-129.667-31.037-60.977-26.521-135.449 2.083-224.167 0-0.013 0-0.028 0-0.043s0-0.030 0-0.045v0.002l54.583-168.5c28.828-88.72 68.93-151.672 129.833-182.833s135.35-26.776 224.083 1.833c0.233 0.112 0.287 0.141 0.342 0.169l-0.175-0.084 67.417 22.167c42.324 13.819 78.258 29.739 108.167 50 8.485 5.841 13.977 15.501 13.977 26.444 0 16.727-12.833 30.457-29.19 31.881l-0.12 0.008c-19.356 1.548-40.783 5.106-64.167 10.75-0.025 0-0.054 0-0.083 0s-0.058 0-0.088 0h0.004l-71.667 17.083c-84.828 20.139-133.628 49.492-158.167 89s-29.178 96.085-9.25 181.083l41.833 178.75c8.174 34.742 17.907 64.189 29.167 87.083 2.049 4.101 3.248 8.934 3.248 14.047 0 17.675-14.328 32.003-32.003 32.003-2.090 0-4.134-0.2-6.113-0.583l0.201 0.032zM334.75 695.667c-4.218-13.66-9.978-24.863-13.5-39.833-0.028-0.028-0.055-0.055-0.082-0.082l-0.001-0.001-41.75-178.75c-21.886-93.349-19.925-169.915 17.083-229.5 36.997-59.567 104.702-95.314 197.75-117.417l43.833-10.417c-2.355-0.8-3.331-1.877-5.75-2.667-0.029-0.029-0.057-0.057-0.084-0.084l-0.001-0.001-67.25-22.083c-80.652-26.002-135.542-26.106-175.331-5.748s-71.789 64.917-98 145.583l-54.667 168.5h0.083c-26.009 80.67-26.27 135.677-6 175.5s64.713 71.84 145.333 97.833c0.025 0 0.054 0 0.083 0s0.059 0 0.088 0h-0.005z" />
<glyph unicode="&#xe92f;" glyph-name="sms" d="M298.667 842.667c-69.333 0-131.545-17.584-176.417-59.25s-68.917-105.322-68.917-186.083v-298.667c0-80.762 24.045-144.417 68.917-186.083s107.083-59.25 176.417-59.25h426.667c69.333 0 131.545 17.584 176.417 59.25s68.917 105.322 68.917 186.083v298.667c0 80.762-24.045 144.417-68.917 186.083s-107.083 59.25-176.417 59.25zM298.667 778.667h426.667c58.667 0 103.121-14.416 132.917-42.083s48.417-70.679 48.417-139.25v-298.667c0-68.571-18.621-111.583-48.417-139.25s-74.25-42.083-132.917-42.083h-426.667c-58.667 0-103.121 14.416-132.917 42.083s-48.417 70.679-48.417 139.25v298.667c0 68.571 18.621 111.583 48.417 139.25s74.25 42.083 132.917 42.083zM295.167 607.833c-8.741-0.989-16.303-5.368-21.452-11.771l-0.048-0.062c-4.375-5.427-7.022-12.405-7.022-20.002 0-10.087 4.667-19.084 11.96-24.949l0.062-0.048 133.083-106.667c0.012 0 0.027 0 0.042 0s0.029 0 0.044 0h-0.002c57.291-45.61 142.626-45.61 199.917 0l133.583 106.667c7.355 5.914 12.022 14.911 12.022 24.998 0 7.597-2.647 14.576-7.070 20.064l0.048-0.061c-5.914 7.355-14.911 12.022-24.998 12.022-7.597 0-14.576-2.647-20.064-7.070l0.062 0.048-133.5-106.667c-30.583-24.348-89.381-24.317-120 0h-0.085l-133.081 106.667c-5.427 4.376-12.407 7.025-20.006 7.025-1.231 0-2.446-0.070-3.641-0.205l0.146 0.013z" />
<glyph unicode="&#xe930;" glyph-name="complaints" d="M1011.371 498.944c-16.683 16.683-43.648 16.683-60.331 0l-23.424-23.424-387.499 387.499 23.424 23.424c16.683 16.683 16.683 43.648 0 60.331s-43.648 16.683-60.331 0l-298.667-298.667c-16.683-16.683-16.683-43.648 0-60.331 8.32-8.32 19.243-12.501 30.165-12.501s21.845 4.181 30.165 12.501l24.789 24.789 163.285-163.285-440.448-440.448c-16.683-16.683-16.683-43.648 0-60.331 8.32-8.32 19.243-12.501 30.165-12.501s21.845 4.181 30.165 12.501l440.448 440.448 163.883-163.883-24.747-24.747c-16.683-16.683-16.683-43.648 0-60.331 8.32-8.32 19.243-12.501 30.165-12.501s21.845 4.181 30.165 12.501l298.667 298.667c16.683 16.683 16.683 43.648 0 60.331zM623.616 399.232l-156.672 156.672 129.792 129.792 156.672-156.672c-33.664-33.664-93.653-93.653-129.792-129.792zM479.787 802.688l56.619-56.619-129.792-129.792-56.619 56.619 129.792 129.792zM683.989 338.901c36.224 36.224 96.171 96.171 129.792 129.792l53.504-53.504-129.792-129.792-53.504 53.504z" />
<glyph unicode="&#xe931;" glyph-name="dashboard" d="M671.167 906.667c-37.744 0-70.178-6.362-94.25-27.75s-32.917-53.828-32.917-88.75v-193.25c0-35.101 8.785-67.56 32.917-88.917s56.573-27.583 94.25-27.583h172.167c37.771-0.239 70.285 5.976 94.417 27.333s32.917 53.828 32.917 88.75v193.667c0 34.922-8.845 67.362-32.917 88.75s-56.506 27.75-94.25 27.75zM671.167 842.667h172.333c30.096 0 45.209-5.771 51.75-11.583s11.417-15.678 11.417-40.917v-193.667c0-25.238-4.852-35.097-11.333-40.833s-21.514-11.439-51.583-11.25c-0.037 0-0.082 0-0.126 0s-0.089 0-0.133 0h-172.326c-30.163 0-45.352 5.764-51.833 11.5s-11.332 15.514-11.332 41v193.25c0 25.238 4.875 35.105 11.417 40.917s21.654 11.583 51.75 11.583zM671.167 416c-38.213 0-72.003-7.836-95.667-31.5s-31.5-57.453-31.5-95.667v-172.333c0-38.213 7.836-72.003 31.5-95.667s57.453-31.5 95.667-31.5h172.333c38.213 0 72.003 7.836 95.667 31.5s31.5 57.453 31.5 95.667v172.333c0 38.213-7.836 72.003-31.5 95.667s-57.453 31.5-95.667 31.5zM671.167 352h172.333c29.626 0 43.467-5.8 50.417-12.75s12.75-20.79 12.75-50.417v-172.333c0-29.626-5.8-43.467-12.75-50.417s-20.79-12.75-50.417-12.75h-172.333c-29.626 0-43.467 5.8-50.417 12.75s-12.75 20.79-12.75 50.417v172.333c0 29.626 5.8 43.467 12.75 50.417s20.79 12.75 50.417 12.75zM180.5 906.667c-37.744 0-70.178-6.362-94.25-27.75s-32.917-53.828-32.917-88.75v-193.25c0-35.101 8.785-67.56 32.917-88.917s56.573-27.583 94.25-27.583h172.167c37.771-0.239 70.285 5.976 94.417 27.333s32.917 53.828 32.917 88.75v193.667c0 34.922-8.845 67.362-32.917 88.75s-56.506 27.75-94.25 27.75zM180.5 842.667h172.333c30.096 0 45.209-5.771 51.75-11.583s11.417-15.678 11.417-40.917v-193.667c0-25.238-4.852-35.097-11.333-40.833s-21.514-11.439-51.583-11.25c-0.037 0-0.081 0-0.125 0s-0.088 0-0.132 0h-172.326c-30.163 0-45.352 5.764-51.833 11.5s-11.333 15.514-11.333 41v193.25c0 25.238 4.875 35.105 11.417 40.917s21.654 11.583 51.75 11.583zM180.5 416c-38.213 0-72.003-7.836-95.667-31.5s-31.5-57.453-31.5-95.667v-172.333c0-38.213 7.836-72.003 31.5-95.667s57.453-31.5 95.667-31.5h172.333c38.213 0 72.003 7.836 95.667 31.5s31.5 57.453 31.5 95.667v172.333c0 38.213-7.836 72.003-31.5 95.667s-57.453 31.5-95.667 31.5zM180.5 352h172.333c29.626 0 43.467-5.8 50.417-12.75s12.75-20.79 12.75-50.417v-172.333c0-29.626-5.801-43.467-12.75-50.417s-20.79-12.75-50.417-12.75h-172.333c-29.626 0-43.467 5.8-50.417 12.75s-12.75 20.79-12.75 50.417v172.333c0 29.626 5.801 43.467 12.75 50.417s20.79 12.75 50.417 12.75z" />
<glyph unicode="&#xe932;" glyph-name="arrow-down" horiz-adv-x="983" d="M815.92 601.6c-8.473-0.024-16.136-3.475-21.679-9.039l-267.121-267.041c-19.691-19.691-51.509-19.691-71.2 0l-267.040 267.040c-5.563 5.582-13.258 9.035-21.76 9.035s-16.197-3.454-21.759-9.035l-0.001-0.001c-5.558-5.559-8.995-13.238-8.995-21.72s3.438-16.161 8.995-21.72l267.12-267.040c43.388-43.388 114.692-43.388 158.080 0l267.12 267.040c5.558 5.559 8.995 13.238 8.995 21.72s-3.438 16.161-8.995 21.72v0c-5.562 5.583-13.258 9.039-21.76 9.040v0z" />
<glyph unicode="&#xe933;" glyph-name="undo" horiz-adv-x="983" d="M169.12 629.92c-16.966 0-30.72-13.754-30.72-30.72v0c0-16.966 13.754-30.72 30.72-30.72h450.64c96.428 0 174.080-77.652 174.080-174.080s-77.652-174.080-174.080-174.080h-327.76c-16.966 0-30.72-13.754-30.72-30.72v0c0-16.966 13.754-30.72 30.72-30.72v0h327.76c129.671 0 235.52 105.849 235.52 235.52s-105.849 235.52-235.52 235.52zM263.36 737.12c-8.463-0.001-16.126-3.424-21.681-8.961l-104.879-104.879c-5.557-5.559-8.994-13.238-8.994-21.72s3.437-16.161 8.994-21.72l104.88-104.88c5.559-5.558 13.238-8.995 21.72-8.995s16.161 3.438 21.72 8.995v0c5.558 5.559 8.995 13.238 8.995 21.72s-3.438 16.161-8.995 21.72l-83.12 83.12 83.12 83.12c5.582 5.563 9.035 13.258 9.035 21.76s-3.454 16.197-9.035 21.759l-0.001 0.001c-5.555 5.537-13.22 8.96-21.685 8.96-0.026 0-0.053 0-0.079 0h0.004z" />
<glyph unicode="&#xe934;" glyph-name="import" d="M611.92 491.84c-8.463-0.001-16.126-3.424-21.681-8.961l-83.119-83.119-83.12 83.12c-5.563 5.582-13.258 9.035-21.76 9.035s-16.197-3.454-21.759-9.035l-0.001-0.001c-5.582-5.563-9.035-13.258-9.035-21.76s3.454-16.197 9.035-21.759l104.881-104.801c5.559-5.557 13.238-8.994 21.72-8.994s16.161 3.437 21.72 8.994l104.88 104.8c5.582 5.563 9.035 13.258 9.035 21.76s-3.454 16.197-9.035 21.759l-0.001 0.001c-5.555 5.537-13.22 8.96-21.685 8.96-0.026 0-0.053 0-0.079 0h0.004zM507.12 806.4c-16.966 0-30.72-13.754-30.72-30.72v0-416.56c0-16.966 13.754-30.72 30.72-30.72v0c16.966 0 30.72 13.754 30.72 30.72v0 416.56c0 16.966-13.754 30.72-30.72 30.72v0zM184.32 471.36c-16.966 0-30.72-13.754-30.72-30.72v0c0-194.943 138.937-358.4 358.4-358.4s358.4 163.457 358.4 358.4c0 16.966-13.754 30.72-30.72 30.72v0c-16.966 0-30.72-13.754-30.72-30.72v0c0-167.143-106.824-296.96-296.96-296.96s-296.96 129.817-296.96 296.96c0 16.966-13.754 30.72-30.72 30.72v0z" />
<glyph unicode="&#xe935;" glyph-name="frame" d="M696.48 605.68c-0.776 0.070-1.679 0.109-2.591 0.109-16.047 0-29.221-12.304-30.601-27.993l-0.008-0.116c-0.074-0.8-0.116-1.73-0.116-2.671 0-16.050 12.308-29.225 28-30.601l0.116-0.008c68.88-5.931 110.76-25.107 137.84-58.48s41.68-86.053 41.68-165.28v-5.28c0-87.445-17.305-141.945-50.48-175.12s-87.755-50.56-175.2-50.56h-266.64c-87.445 0-141.945 17.385-175.12 50.56s-50.56 87.675-50.56 175.12v5.28c0 78.636 14.439 131.129 41.12 164.48s67.837 52.658 135.44 58.96c15.669 1.533 27.813 14.64 27.813 30.582 0 1.006-0.048 2.001-0.143 2.983l0.010-0.125c-1.533 15.669-14.64 27.813-30.582 27.813-1.006 0-2.001-0.048-2.983-0.143l0.125 0.010c-77.395-7.215-138.416-32.6-177.68-81.68s-54.56-116.857-54.56-202.88v-5.28c0-95.646 19.303-169.303 68.56-218.56s122.914-68.56 218.56-68.56h266.64c95.646 0 169.383 19.303 218.64 68.56s68.48 122.914 68.48 218.56v5.28c0 86.661-15.47 154.839-55.36 204s-101.824 74.274-180.4 81.040zM512 888.32c-16.966 0-30.72-13.754-30.72-30.72v0-527.6c0-16.966 13.754-30.72 30.72-30.72v0c16.966 0 30.72 13.754 30.72 30.72v0 527.6c0 16.966-13.754 30.72-30.72 30.72v0zM649.2 452.16c-8.463-0.001-16.126-3.424-21.681-8.961l-115.519-115.519-115.44 115.52c-5.563 5.582-13.258 9.035-21.76 9.035s-16.197-3.454-21.759-9.035l-0.001-0.001c-5.582-5.563-9.035-13.258-9.035-21.76s3.454-16.197 9.035-21.759l137.281-137.201c5.559-5.557 13.238-8.994 21.72-8.994s16.161 3.437 21.72 8.994l137.2 137.2c5.582 5.563 9.035 13.258 9.035 21.76s-3.454 16.197-9.035 21.759l-0.001 0.001c-5.555 5.537-13.22 8.96-21.685 8.96-0.026 0-0.053 0-0.079 0h0.004z" />
<glyph unicode="&#xe936;" glyph-name="export" horiz-adv-x="983" d="M676 605.68c-0.776 0.070-1.679 0.109-2.591 0.109-16.047 0-29.221-12.304-30.601-27.993l-0.008-0.116c-0.074-0.8-0.116-1.73-0.116-2.671 0-16.050 12.308-29.225 28-30.601l0.116-0.008c68.88-5.931 110.76-25.107 137.84-58.48s41.68-86.053 41.68-165.28v-5.28c0-87.445-17.305-141.945-50.48-175.12s-87.755-50.56-175.2-50.56h-266.64c-87.445 0-141.945 17.385-175.12 50.56s-50.56 87.675-50.56 175.12v5.28c0 78.636 14.439 131.129 41.12 164.48s67.837 52.658 135.44 58.96c15.669 1.533 27.813 14.64 27.813 30.582 0 1.006-0.048 2.001-0.143 2.983l0.010-0.125c-1.533 15.669-14.64 27.813-30.582 27.813-1.006 0-2.001-0.048-2.983-0.143l0.125 0.010c-77.395-7.215-138.416-32.6-177.68-81.68s-54.56-116.857-54.56-202.88v-5.28c0-95.646 19.303-169.303 68.56-218.56s122.914-68.56 218.56-68.56h266.64c95.646 0 169.383 19.303 218.64 68.56s68.48 122.914 68.48 218.56v5.28c0 86.661-15.47 154.839-55.36 204s-101.824 74.274-180.4 81.040zM491.52 821.92c-16.966 0-30.72-13.754-30.72-30.72v0-466.16c0-16.966 13.754-30.72 30.72-30.72v0c16.966 0 30.72 13.754 30.72 30.72v0 466.16c0 16.966-13.754 30.72-30.72 30.72v0zM469.84 858.88l-137.28-137.28c-5.558-5.559-8.995-13.238-8.995-21.72s3.438-16.161 8.995-21.72v0c5.563-5.582 13.258-9.035 21.76-9.035s16.197 3.454 21.759 9.035l115.441 115.521 115.52-115.52c5.559-5.558 13.238-8.995 21.72-8.995s16.161 3.438 21.72 8.995v0c5.558 5.559 8.995 13.238 8.995 21.72s-3.438 16.161-8.995 21.72l-137.2 137.28c-5.559 5.557-13.238 8.994-21.72 8.994s-16.161-3.437-21.72-8.994v0z" />
<glyph unicode="&#xe937;" glyph-name="wallet" d="M298.667 693.333c-13.185 0-26.040-0.948-38.583-2.833-0.028-0.003-0.055 0.003-0.083 0-122.6-15.425-206.667-113.613-206.667-242.5v-213.333c0-71.111 24.202-133.535 68-177.333s106.222-68 177.333-68h426.667c71.111 0 133.535 24.202 177.333 68s68 106.222 68 177.333v213.333c0 129.687-85.441 228.154-209.083 242.833-12.566 2.009-24.657 2.5-36.25 2.5zM298.667 629.333h426.667c10.274 0 19.212-0.41 26.75-1.667 0.335-0.070 0.874-0.157 1.417-0.232l0.166-0.019c96.175-11.183 153-75.512 153-179.417v-213.333c0-56.889-18.465-101.132-49.333-132s-75.111-49.333-132-49.333h-426.667c-56.889 0-101.132 18.465-132 49.333s-49.333 75.111-49.333 132v213.333c0 103.19 55.795 167.084 150.75 179 0.502 0.081 0.813 0.139 1.122 0.202l-0.205-0.035c9.387 1.444 19.244 2.167 29.667 2.167zM533.417 906.5c-46.499 0-93.057-17.565-128.417-52.667-0.028-0.028-0.055-0.055-0.082-0.082l-0.001-0.001-138.667-139.083c-12.126-12.126-22.785-25.82-30.667-41.583-2.118-4.159-3.358-9.070-3.358-14.271 0-17.675 14.328-32.003 32.003-32.003 1.684 0 3.338 0.13 4.951 0.381l-0.18-0.023c9.387 1.444 19.327 2.167 29.75 2.167h426.667c10.274 0 19.212-0.41 26.75-1.667 1.563-0.27 3.363-0.425 5.199-0.425 17.675 0 32.003 14.328 32.003 32.003 0 0.529-0.013 1.056-0.038 1.579l0.003-0.074c-2.079 43.134-20.080 85.261-53 117.667l-74.333 75.25c0.031-0.017-0.051 0.038-0.133 0.093l-0.118 0.074c-35.358 35.102-81.833 52.667-128.332 52.667zM533.417 842.833c30.088 0 60.157-11.492 83.25-34.417l74.417-75.25c0.112-0.113 0.22-0.222 0.329-0.33l0.003-0.003c11.397-11.218 12.197-26.116 17.834-39.5h-373.917l114.75 115.083c23.093 22.925 53.246 34.417 83.333 34.417zM810.667 458.667c-64.388 0-117.333-52.946-117.333-117.333s52.946-117.333 117.333-117.333h128c17.673 0 32 14.327 32 32v0c0 17.673-14.327 32-32 32v0h-128c-29.479 0-53.333 23.855-53.333 53.333s23.855 53.333 53.333 53.333h128c17.673 0 32 14.327 32 32v0c0 17.673-14.327 32-32 32v0z" />
<glyph unicode="&#xe938;" glyph-name="setting" d="M512 608c-87.987 0-160-72.013-160-160s72.013-160 160-160c87.987 0 160 72.013 160 160s-72.013 160-160 160zM512 544c53.401 0 96-42.599 96-96s-42.599-96-96-96c-53.401 0-96 42.599-96 96s42.599 96 96 96zM401.833 879.083c-25.551 6.773-53.648 3.842-78.083-10.667l-73.417-42c-54.061-30.892-72.619-100.678-41.667-154.25 0-0.012 0-0.027 0-0.042s0-0.029 0-0.044v0.002c15.634-26.973 14.175-43.985 8.5-53.833s-19.68-19.667-50.75-19.667c-62.273 0-113.083-51.274-113.083-113.083v-75.083c0-61.809 50.81-113.083 113.083-113.083 31.070 0 45.075-9.818 50.75-19.667s7.134-26.944-8.5-53.917c-30.953-53.572-12.394-123.441 41.667-154.333l73.333-41.917c48.908-29.097 112.411-11.585 141.167 36.75-0.028-0.070 0.028 0.039 0.083 0.148l0.084 0.184 4.75 8.083c15.639 26.982 31.187 34.25 42.583 34.25s26.897-7.239 42.333-34.167c0-0.013 0-0.028 0-0.043s0-0.030 0-0.045v0.002l4.75-8.083c0.139-0.294 0.194-0.403 0.25-0.512l-0.084 0.179c28.756-48.335 92.259-65.847 141.167-36.75l73.333 41.917c53.908 30.804 72.467 100.412 41.75 154.167-0.112 0.233-0.141 0.287-0.169 0.342l0.084-0.175c-15.634 26.973-14.175 44.068-8.5 53.917s19.68 19.667 50.75 19.667c62.273 0 113.083 51.274 113.083 113.083v75.083c0 62.273-51.274 113.083-113.083 113.083-31.070 0-45.075 9.818-50.75 19.667s-7.134 26.86 8.5 53.833c0 0.012 0 0.027 0 0.042s0 0.029 0 0.044v-0.002c30.955 53.574 12.397 123.36-41.664 154.252l-73.333 42c-0.026 0.015-0.060-0.015-0.085 0-48.897 29.033-112.342 11.559-141.083-36.75 0.028 0.070-0.028-0.039-0.083-0.149l-0.084-0.185-4.748-8.083c-15.62-26.903-31.2-34.333-42.583-34.333-11.397 0-26.897 7.239-42.333 34.167 0 0.025 0 0.054 0 0.083s0 0.059 0 0.088v-0.005l-4.75 8.083c-0.139 0.294-0.194 0.404-0.25 0.512l0.084-0.179c-14.378 24.167-37.423 40.637-63 47.417zM385.833 817.417c9.622-2.607 18.325-8.961 24-18.5l4.5-7.75c22.965-39.997 58.303-66.25 97.75-66.25 39.483 0 74.812 26.245 98 66.25l4.5 7.75c11.35 19.078 34.911 25.51 53.417 14.5-0.014-0.001 0.149-0.084 0.314-0.166l0.186-0.084 73.833-42.25c23.592-13.481 31.421-43.522 18-66.75-23.193-40.014-28.211-83.712-8.5-117.917s60.010-51.667 106.167-51.667c26.937 0 49.083-21.756 49.083-49.083v-75.083c0-26.937-21.756-49.083-49.083-49.083-46.157 0-86.455-17.545-106.167-51.75-19.683-34.156-14.691-77.783 8.417-117.75 13.657-23.899 5.829-53.264-17.917-66.833l-73.833-42.25c-0.349-0.166-0.513-0.25-0.676-0.336l0.176 0.084c-18.506-11.010-42.066-4.662-53.417 14.417l-4.417 7.667-0.085 0.166c-22.966 39.965-58.322 66.167-97.75 66.167-39.483 0-74.812-26.162-98-66.167l-4.5-7.833c-11.35-19.078-34.911-25.426-53.417-14.417 0.013 0.001-0.151 0.085-0.315 0.168l-0.185 0.084-73.748 42.25c-0.012 0-0.027 0-0.042 0s-0.029 0-0.044 0h0.002c-23.566 13.466-31.359 43.449-18 66.667v0.085c23.156 39.992 28.282 83.647 8.583 117.831-19.711 34.205-60.093 51.75-106.25 51.75-27.327 0-49.083 22.146-49.083 49.083v75.083c0 26.937 21.756 49.083 49.083 49.083 46.157 0 86.539 17.462 106.25 51.667s14.609 77.903-8.583 117.917c-13.421 23.228-5.592 53.269 18 66.75 0.012 0 0.027 0 0.042 0s0.029 0 0.044 0h-0.002l73.75 42.25c0.351 0.166 0.515 0.249 0.678 0.334l-0.178-0.084c9.253 5.505 19.794 6.606 29.417 4z" />
<glyph unicode="&#xe939;" glyph-name="star" horiz-adv-x="951" d="M365.248 829.371c39.973 82.499 157.496 82.499 197.469 0l55.327-114.185c15.824-32.658 46.773-55.378 82.671-60.692l126.999-18.796c89.359-13.226 125.345-122.742 61.235-186.389l-94.442-93.768c-25.285-25.108-36.805-60.934-30.888-96.075l21.943-130.317c15.141-89.9-79.615-157.974-159.985-114.937l-109.802 58.8c-32.355 17.328-71.231 17.328-103.586 0l-109.802-58.8c-80.369-43.037-175.122 25.037-159.984 114.937l21.943 130.317c5.918 35.141-5.601 70.968-30.89 96.075l-94.442 93.768c-64.106 63.647-28.125 173.163 61.238 186.389l126.998 18.796c35.899 5.314 66.847 28.034 82.671 60.692l55.327 114.185z" />
<glyph unicode="&#xe93a;" glyph-name="trash" d="M468.444 768.889c-85.917 0-171.772-4.324-257.667-13l-86.889-8.556c-21.716-2.178-38.53-20.358-38.53-42.466 0-1.44 0.071-2.864 0.211-4.267l-0.014 0.177c2.178-21.716 20.358-38.53 42.466-38.53 1.44 0 2.864 0.071 4.267 0.211l-0.177-0.014 87.111 8.556c0.016 0 0.036 0 0.055 0s0.039 0 0.059 0h-0.003c83.065 8.39 166.068 12.556 249.111 12.556 141.059 0 282.617-7.166 423.333-21.111 1.263-0.133 2.728-0.208 4.211-0.208 22.072 0 40.23 16.76 42.441 38.248l0.015 0.182c0.133 1.263 0.208 2.728 0.208 4.211 0 22.072-16.76 40.23-38.248 42.441l-0.182 0.015c-143.444 14.216-287.824 21.556-431.778 21.556zM456.111 917.333c-42.028 0-76.836-10.037-98.556-34.667s-24.141-51.505-27.556-71.778l-9.444-55.889c-0.372-2.115-0.584-4.551-0.584-7.036 0-21.062 15.262-38.56 35.33-42.038l0.254-0.036c2.148-0.383 4.621-0.602 7.144-0.602 21.069 0 38.571 15.271 42.041 35.348l0.036 0.254 9.333 55.889c3.412 20.261 6.871 28.794 7.444 29.444s4.477 5.778 34.556 5.778h111.778c29.742 0 33.52-5.157 34.444-6.222s4.374-9.71 7.556-29.222c0-0.033 0-0.072 0-0.111s0-0.078 0-0.117v0.006l9.333-55.556c3.553-20.279 21.029-35.494 42.059-35.494 2.53 0 5.009 0.22 7.419 0.643l-0.256-0.037c20.331 3.507 35.602 21.009 35.602 42.078 0 2.524-0.219 4.997-0.639 7.4l0.037-0.256-9.444 55.444c-3.204 19.724-5.816 46.554-27.222 71.222-21.476 24.748-56.524 35.556-98.889 35.556zM217 612.556c-22.328-1.513-39.867-19.996-39.867-42.575 0-0.971 0.032-1.934 0.096-2.888l-0.007 0.129 27.667-429.667c0.149-0.317 0.186-0.39 0.223-0.462l-0.112 0.241c2.35-33.534 2.569-72.531 29.556-107.667s74.817-51 140.556-51h273.889c65.739 0 113.569 15.864 140.556 51s27.206 74.133 29.556 107.667c0 0.033 0 0.072 0 0.111s0 0.078 0 0.117v-0.006l27.778 429.667c0.057 0.825 0.089 1.788 0.089 2.759 0 22.579-17.539 41.062-39.736 42.568l-0.131 0.007c-0.825 0.057-1.788 0.089-2.759 0.089-22.579 0-41.062-17.539-42.568-39.736l-0.007-0.131-27.778-429.444c-2.344-33.453-6.245-54.029-12.111-61.667s-19.588-17.667-72.889-17.667h-273.889c-53.301 0-67.023 10.029-72.889 17.667-5.846 7.611-9.764 28.197-12.111 61.444v0.222l-27.778 429.445c-1.513 22.328-19.996 39.867-42.575 39.867-0.971 0-1.934-0.032-2.888-0.096l0.129 0.007zM440.778 298.667c-23.564 0-42.667-19.103-42.667-42.667v0c0-23.564 19.103-42.667 42.667-42.667v0h142.111c23.564 0 42.667 19.103 42.667 42.667v0c0 23.564-19.103 42.667-42.667 42.667v0zM405.333 469.333c-23.564 0-42.667-19.103-42.667-42.667v0c0-23.564 19.103-42.667 42.667-42.667v0h213.333c23.564 0 42.667 19.103 42.667 42.667v0c0 23.564-19.103 42.667-42.667 42.667v0z" />
<glyph unicode="&#xe93b;" glyph-name="edit" d="M660.778 909.222c-51.757-6.618-92.342-38.001-126-73.556l-350.333-370.778c0-0.016 0-0.036 0-0.055s0-0.039 0-0.059v0.003c-22.964-24.446-35.467-52.223-39.778-84.556-0.010-0.024-0.049-0.289-0.086-0.555l-0.025-0.222-15.778-138.222c-0.029-0.030-0.065-0.067-0.101-0.104l-0.010-0.010c-4.005-36.045 7.481-71.876 32.333-95.444s61.278-33.067 97.111-26.889l137.333 23.447c0.411 0.128 0.521 0.167 0.632 0.206l-0.299-0.092c32.351 5.749 59.977 19.603 83.333 45.22l349.778 370.222c33.658 35.554 62.797 77.714 66.444 129.889s-21.694 106.565-74.556 156.556c-52.68 49.567-108.243 71.618-160 65zM671.556 824.556c22.483 2.875 49.48-3.692 90.667-42.444 41.327-39.12 49.578-65.868 48-88.444-1.58-22.598-16.405-48.777-43.333-77.222 0-0.016 0-0.036 0-0.055s0-0.039 0-0.059v0.003l-350.333-370.778c-0.086-0.103-0.231-0.284-0.375-0.467l-0.069-0.091c-3.097-3.396-29.285-17.591-35.333-18.667l-137-23.444c-0.016 0-0.036 0-0.055 0s-0.039 0-0.059 0h0.003c-13.661-2.355-19.834 0.933-23.889 4.778-4.037 3.828-7.712 10.14-6.222 23.889v0.114l15.667 137.333v0.114c0.864 6.138 13.814 33.406 17.333 37.219v0.111l350.222 370.556c26.928 28.445 52.295 44.681 74.778 47.556zM500.778 786.556c-20.55-3.312-36.056-20.921-36.056-42.151 0-2.3 0.182-4.557 0.532-6.758l-0.032 0.243c21.307-136.762 132.729-241.807 270.333-255.667 1.296-0.14 2.799-0.219 4.321-0.219 22.076 0 40.236 16.766 42.442 38.26l0.015 0.182c0.133 1.263 0.208 2.728 0.208 4.211 0 22.072-16.76 40.23-38.248 42.441l-0.182 0.015c-99.622 10.034-179.28 85.131-194.667 183.889-3.312 20.55-20.921 36.056-42.151 36.056-2.3 0-4.557-0.182-6.758-0.532l0.243 0.032zM128 64c-23.564 0-42.667-19.103-42.667-42.667v0c0-23.564 19.103-42.667 42.667-42.667v0h768c23.564 0 42.667 19.103 42.667 42.667v0c0 23.564-19.103 42.667-42.667 42.667v0z" />
<glyph unicode="&#xe93c;" glyph-name="wallet-add" d="M533.417 906.5c-46.499 0-93.057-17.565-128.417-52.667-0.028-0.028-0.055-0.055-0.082-0.082l-0.001-0.001-138.667-139.083c-12.125-12.125-22.785-25.82-30.667-41.583-2.118-4.159-3.358-9.070-3.358-14.271 0-17.675 14.328-32.003 32.003-32.003 1.684 0 3.338 0.13 4.951 0.381l-0.18-0.023c9.387 1.444 19.327 2.167 29.75 2.167h426.667c10.274 0 19.212-0.41 26.75-1.667 1.563-0.27 3.363-0.425 5.199-0.425 17.675 0 32.003 14.328 32.003 32.003 0 0.529-0.013 1.056-0.038 1.579l0.003-0.074c-2.079 43.134-20.079 85.26-53 117.667l0.333-0.25-74.667 75.5c0.031-0.017-0.051 0.038-0.133 0.093l-0.118 0.074c-35.358 35.102-81.832 52.667-128.331 52.667zM533.417 842.833c30.088 0 60.157-11.492 83.25-34.417l74.417-75.25c0.112-0.113 0.22-0.222 0.329-0.33l0.003-0.003c11.396-11.218 12.197-26.116 17.834-39.5h-373.917l114.75 115.083c23.093 22.925 53.246 34.417 83.333 34.417zM213.333 352c-111.572 0-202.667-91.094-202.667-202.667 0-37.881 10.635-73.869 29.417-104.417 35.066-58.79 99.645-98.25 173.25-98.25s138.184 39.46 173.25 98.25c18.782 30.548 29.417 66.535 29.417 104.417 0 111.572-91.094 202.667-202.667 202.667zM213.333 288c77.014 0 138.667-61.652 138.667-138.667 0-26.027-7.294-50.479-20-71.083-0.004 0.002-0.087-0.134-0.169-0.271l-0.081-0.147c-23.842-40.081-67.521-67.165-118.417-67.165s-94.574 27.084-118.417 67.167c-0.163 0.284-0.246 0.42-0.329 0.556l0.079-0.138c-12.706 20.603-20 45.055-20 71.082 0 77.014 61.652 138.667 138.667 138.667zM149.833 182.167c-17.673 0-32-14.327-32-32v0c0-17.673 14.327-32 32-32v0h127.167c17.673 0 32 14.327 32 32v0c0 17.673-14.327 32-32 32v0zM213.333 244.5c-17.673 0-32-14.327-32-32v0-127.583c0-17.673 14.327-32 32-32v0c17.673 0 32 14.327 32 32v0 127.583c0 17.673-14.327 32-32 32v0zM298.667 693.333c-13.185 0-26.040-0.948-38.583-2.833-0.028-0.003-0.055 0.003-0.083 0-122.6-15.425-206.667-113.613-206.667-242.5v-186c0.004-17.672 14.331-31.995 32.003-31.995 9.54 0 18.104 4.174 23.968 10.795l0.029 0.034c25.367 28.842 62.222 47.167 104 47.167 77.014 0 138.667-61.652 138.667-138.667 0-26.027-7.294-50.479-20-71.083-0.065-0.092-0.202-0.309-0.338-0.529l-0.079-0.138c-7.103-12.177-16.252-23.085-26.583-31.75-6.996-5.91-11.409-14.688-11.409-24.497 0-17.671 14.322-31.997 31.992-32.003h399.751c71.111 0 133.535 24.202 177.333 68s68 106.222 68 177.333v213.333c0 129.687-85.441 228.154-209.083 242.833-12.566 2.009-24.657 2.5-36.25 2.5zM298.667 629.333h426.667c10.274 0 19.212-0.41 26.75-1.667 0.335-0.070 0.874-0.157 1.417-0.232l0.166-0.019c96.175-11.183 153-75.512 153-179.417v-213.333c0-56.889-18.465-101.132-49.333-132s-75.111-49.333-132-49.333h-336.417c16.043 28.88 27.083 61.169 27.083 96 0 111.572-91.094 202.667-202.667 202.667-35.326 0-67.104-11.067-96-27v123c0 103.19 55.795 167.084 150.75 179 0.502 0.081 0.813 0.139 1.122 0.202l-0.205-0.035c9.387 1.444 19.244 2.167 29.667 2.167zM386.917 45.333l-0.417-0.667c0.046 0.073 0.038 0.175 0.083 0.252 0.091 0.158 0.242 0.26 0.333 0.418zM810.667 458.667c-64.388 0-117.333-52.946-117.333-117.333s52.946-117.333 117.333-117.333h128c17.673 0 32 14.327 32 32v0c0 17.673-14.327 32-32 32v0h-128c-29.479 0-53.333 23.855-53.333 53.333s23.855 53.333 53.333 53.333h128c17.673 0 32 14.327 32 32v0c0 17.673-14.327 32-32 32v0z" />
<glyph unicode="&#xe93d;" glyph-name="empty-wallet" d="M267.083 661.333c-105.737 0-192.417-86.68-192.417-192.417v-287.167c0-105.737 86.68-192.417 192.417-192.417h489.833c105.737 0 192.417 86.68 192.417 192.417v50.75c-0.002 17.672-14.328 31.998-32 32h-81.084c-30.475 0-57.916 22.487-60.25 50.5 0 0.049 0 0.108 0 0.166s0 0.117 0 0.175v-0.009c-1.617 16.985 4.784 32.636 16.083 43.667 0.199 0.194 0.389 0.384 0.577 0.577l0.006 0.007c9.84 10.106 22.988 15.917 38.5 15.917h86.167c17.672 0.002 31.998 14.328 32 32v0 61.417c0 105.737-86.68 192.417-192.417 192.417zM267.083 597.333h489.833c70.903 0 128.417-57.514 128.417-128.417v-29.417h-54.167c-32.182 0-62.446-13.047-84.167-35.25-24.196-23.864-38.025-58.239-34.667-94.667 5.408-64.082 62.271-109.083 123.917-109.083h49.083v-18.75c0-70.903-57.514-128.417-128.417-128.417h-489.833c-70.903 0-128.417 57.514-128.417 128.417v287.167c0 70.902 57.514 128.417 128.417 128.417zM567.25 903.417c-17.762 2.529-36.432 0.745-54.667-6.167l-338.75-127.917c0-0.012 0-0.027 0-0.042s0-0.029 0-0.044v0.002c-59.685-22.584-99.167-79.973-99.167-143.833v-195c0-17.673 14.327-32 32-32v0c17.673 0 32 14.327 32 32v0 195c0 37.686 22.798 70.744 57.833 84l338.75 128c32.874 12.46 66.333-10.587 66.333-46v-162.167c0-17.673 14.327-32 32-32v0c17.673 0 32 14.327 32 32v0 162.167c0 58.56-45.046 104.412-98.333 112zM831.083 439.5c-32.181 0-62.363-12.964-84.083-35.167-24.198-23.866-38.196-58.234-34.833-94.667 0.002-0.027-0.002-0.055 0-0.085 5.386-64.104 62.424-109 124.083-109h83.583c0.174-0.003 0.378-0.005 0.583-0.005s0.41 0.002 0.614 0.006h-0.031c40.406 1.443 73.5 34.967 73.5 75.5v87.919c0 40.533-33.094 74.057-73.5 75.5-0.174 0.003-0.378 0.005-0.583 0.005s-0.41-0.002-0.614-0.006h0.031zM831.083 375.5h87.583c7.381-0.265 11.833-5.1 11.833-11.5v-87.917c0-6.4-4.453-11.236-11.833-11.5h-82.417c-30.475 0-57.999 22.403-60.333 50.417 0 0.062 0.001 0.136 0.001 0.209s0 0.147-0.001 0.22v-0.011c-1.617 16.985 4.784 32.553 16.083 43.583 0.199 0.194 0.389 0.384 0.577 0.577l0.006 0.007c9.84 10.106 22.988 15.917 38.5 15.917zM298.667 480c-17.673 0-32-14.327-32-32v0c0-17.673 14.327-32 32-32v0h298.667c17.673 0 32 14.327 32 32v0c0 17.673-14.327 32-32 32v0z" />
<glyph unicode="&#xe93e;" glyph-name="book-saved" d="M180.083 878c-68.148 5.677-126.75-48.7-126.75-116.833v-515.417c0-58.267 43.822-108.917 102.167-116.25l12.083-1.667c0.025 0 0.054 0 0.083 0s0.059 0 0.088 0h-0.005c86.342-11.539 229.822-58.621 306.25-100.417 0.194-0.118 0.548-0.312 0.907-0.499l0.177-0.084 1.667-0.833-1.167 0.667c24.128-13.405 48.178-13.782 72.5 0.252l-0.583-0.333c76.366 42.16 220.39 89.717 307.083 101.25h-0.418l14.083 1.667c0.025 0 0.054 0 0.083 0s0.058 0 0.088 0h-0.004c58.385 7.295 102.251 57.954 102.251 116.247v515c0 68.622-59.228 122.466-127.25 116.75l2.667 0.167h-2.583c-0.97-0.021-1.895-0.081-2.808-0.179l0.141 0.012c-10.977-0.915-23.12-2.281-36-4.667-14.972-2.852-26.141-15.826-26.167-31.414v-163.003l-35.583 23.667c-4.988 3.366-11.135 5.373-17.75 5.373s-12.762-2.007-17.864-5.446l0.114 0.072-35.583-23.667v114.333c-0.021 17.659-14.341 31.967-32.003 31.967-4.292 0-8.387-0.845-12.127-2.377l0.213 0.077c-38.455-15.47-74.013-32.671-103.083-50.667-0.284-0.183-0.447-0.292-0.608-0.404l0.108 0.070-6.75-4.417c1.069 0.664-12.569 0.664-11.5 0 0.002 0.004-0.134 0.087-0.271 0.169l-0.147 0.081-10.167 6.167-0.333 0.167c-82.71 51.489-217.606 96.502-315.166 104.416zM174.833 814.167c0.012 0 0.027 0 0.042 0s0.029 0 0.044 0h-0.002c81.526-6.6 217.644-51.938 286.833-95.083 0.053-0.041 0.216-0.151 0.38-0.259l0.12-0.074 10.25-6.083c25.816-16.024 53.184-16.024 79 0 0.284 0.183 0.447 0.292 0.608 0.404l-0.108-0.070 6.75 4.333c13.050 8.078 32.437 16.017 49.25 24.167v-122.833c0-0.010 0-0.023 0-0.035 0-17.675 14.328-32.003 32.003-32.003 6.614 0 12.759 2.006 17.861 5.444l-0.114-0.072 67.583 45 67.583-45c4.987-3.365 11.133-5.371 17.747-5.371 17.675 0 32.003 14.328 32.003 32.003 0 0.012 0 0.024 0 0.037v-0.002 194.667c0.917 0.084 1.925 0.256 2.833 0.333h0.583c0.1-0.001 0.218-0.002 0.336-0.002 0.82 0 1.633 0.031 2.438 0.091l-0.107-0.006c33.525 2.817 57.917-19.222 57.917-53v-515c0-23.627-22.713-49.808-46.25-52.75l-13.917-1.667c-0.334-0.077-0.445-0.107-0.557-0.137l0.224 0.051c-99.333-13.214-242.109-60.374-329.583-108.667-0.349-0.166-0.513-0.25-0.676-0.336l0.176 0.084c2.135 1.232-10.505 0.855-9.417 0.252-0.247 0.148-0.656 0.37-1.070 0.583l-0.18 0.084-1.75 0.833 1.083-0.583c-87.374 47.783-229.591 94.519-328.417 107.752h-0.167l-12.25 1.75c-0.049 0-0.108 0-0.167 0s-0.117 0-0.176 0h0.009c-23.537 2.942-46.25 29.123-46.25 52.75v515.417c0 33.384 24.137 55.804 57.5 53zM512 757.75c-17.673 0-32-14.327-32-32v0-640c0-17.673 14.327-32 32-32v0c17.673 0 32 14.327 32 32v0 640c0 17.673-14.327 32-32 32v0zM805.5 873c-55.525-9.028-119.353-27.485-177.333-50.5-11.916-4.837-20.167-16.322-20.167-29.734 0-0.006 0-0.011 0-0.017v0.001-174.083c0-0.010 0-0.023 0-0.035 0-17.675 14.328-32.003 32.003-32.003 6.614 0 12.759 2.006 17.861 5.444l-0.114-0.072 67.583 45 67.583-45c4.987-3.365 11.133-5.371 17.747-5.371 17.675 0 32.003 14.328 32.003 32.003 0 0.012 0 0.024 0 0.037v-0.002 222.75c0 17.675-14.329 32.003-32.003 32.003-1.823 0-3.611-0.152-5.351-0.445l0.188 0.026zM778.667 799.167v-120.75l-35.583 23.667c-4.988 3.366-11.135 5.373-17.75 5.373s-12.762-2.007-17.864-5.446l0.114 0.072-35.583-23.667v90.333c35.929 13.205 71.786 22.609 106.667 30.417z" />
<glyph unicode="&#xe93f;" glyph-name="message" d="M341.333 906.667c-90.667 0-164.458-23.124-214.667-73.333s-73.333-124-73.333-214.667v-213.333c0-110.933 22.589-186.296 74.917-232.083s125.083-55.917 213.083-55.917h21.333c-2.702 0 10.342-6.794 8.25-3.917 0.141-0.193 0.223-0.301 0.306-0.409l-0.056 0.076 64-85.333c19.107-25.476 47.484-41 76.833-41s57.726 15.524 76.833 41l63.917 85.167c2.029 2.623 5.701 4.417 8.583 4.417h21.333c90.667 0 164.458 23.124 214.667 73.333s73.333 124 73.333 214.667v213.333c0 90.667-23.124 164.458-73.333 214.667s-124 73.333-214.667 73.333zM341.333 842.667h341.333c80 0 134.209-19.543 169.333-54.667s54.667-89.333 54.667-169.333v-213.333c0-80-19.543-134.209-54.667-169.333s-89.333-54.667-169.333-54.667h-21.333c-23.549 0-45.389-10.99-59.583-29.667-0.056-0.056-0.11-0.11-0.165-0.165l-0.002-0.002-64-85.333c-9.053-12.071-17.813-15.417-25.584-15.417s-16.53 3.346-25.583 15.417l-63.75 84.917c-15.746 21.65-34.258 30.25-60 30.25h-21.333c-82.667 0-137.911 11.204-170.917 40.083s-53.083 81.517-53.083 183.917v213.333c0 80 19.543 134.209 54.667 169.333s89.333 54.667 169.333 54.667zM682.5 533.333c-23.564 0-42.667-19.103-42.667-42.667v0c0-23.564 19.103-42.667 42.667-42.667v0h0.418c23.564 0 42.667 19.103 42.667 42.667v0c0 23.564-19.103 42.667-42.667 42.667v0zM511.75 533.333c-23.564 0-42.667-19.103-42.667-42.667v0c0-23.564 19.103-42.667 42.667-42.667v0h0.418c23.564 0 42.667 19.103 42.667 42.667v0c0 23.564-19.103 42.667-42.667 42.667v0zM341.083 533.333c-23.564 0-42.667-19.103-42.667-42.667v0c0-23.564 19.103-42.667 42.667-42.667v0h0.417c23.564 0 42.667 19.103 42.667 42.667v0c0 23.564-19.103 42.667-42.667 42.667v0z" />
<glyph unicode="&#xe940;" glyph-name="heart" d="M322.583 859.75c-148.359 0-269.25-121.469-269.25-270.5 0-159.207 74.13-286.199 162.833-377.083 88.642-90.822 191.070-147.059 258.917-170.25 24.791-8.711 49.042-8.711 73.833 0 67.847 23.191 170.274 79.428 258.917 170.25 88.703 90.884 162.833 217.876 162.833 377.083 0 149.031-120.891 270.5-269.25 270.5-75.518 0-140.523-35.809-189.417-86.75-48.797 50.898-113.587 86.75-189.417 86.75zM322.583 795.75c67.338 0 126.422-32.403 163.75-82.667 5.898-7.858 15.195-12.887 25.667-12.887s19.769 5.029 25.607 12.805l0.059 0.083c37.267 50.182 96.895 82.667 163.75 82.667 113.614 0 205.25-91.851 205.25-206.5 0-139.459-64.113-249.968-144.583-332.417s-178.113-135.338-234-154.417c-0.201-0.129-0.283-0.183-0.365-0.239l0.113 0.072c-4.108-1.45-27.559-1.45-31.667 0 0.032-0.017-0.050 0.038-0.133 0.092l-0.119 0.074c-55.884 19.079-153.526 71.968-233.997 154.417s-144.583 192.958-144.583 332.417c0 114.649 91.636 206.5 205.25 206.5z" />
<glyph unicode="&#xe941;" glyph-name="plus" horiz-adv-x="970" d="M202.105 501.895c-29.765 0-53.895-24.129-53.895-53.895v0c0-29.765 24.129-53.895 53.895-53.895v0h565.895c29.765 0 53.895 24.129 53.895 53.895v0c0 29.765-24.129 53.895-53.895 53.895v0zM485.053 784.842c-29.765 0-53.895-24.129-53.895-53.895v0-565.895c0-29.765 24.129-53.895 53.895-53.895v0c29.765 0 53.895 24.129 53.895 53.895v0 565.895c0 29.765-24.129 53.895-53.895 53.895v0z" />
<glyph unicode="&#xe942;" glyph-name="calendar" d="M341.333 906.667c-17.673 0-32-14.327-32-32v0-128c0-17.673 14.327-32 32-32v0c17.673 0 32 14.327 32 32v0 128c0 17.673-14.327 32-32 32v0zM682.667 906.667c-17.673 0-32-14.327-32-32v0-128c0-17.673 14.327-32 32-32v0c17.673 0 32 14.327 32 32v0 128c0 17.673-14.327 32-32 32v0zM149.333 604.167c-17.673 0-32-14.327-32-32v0c0-17.673 14.327-32 32-32v0h725.333c17.673 0 32 14.327 32 32v0c0 17.673-14.327 32-32 32v0zM341.333 842.667c-80.762 0-144.417-24.045-186.083-68.917s-59.25-107.083-59.25-176.417v-362.667c0-69.333 17.584-131.545 59.25-176.417s105.322-68.917 186.083-68.917h341.333c80.762 0 144.417 24.045 186.083 68.917s59.25 107.083 59.25 176.417v362.667c0 69.333-17.584 131.545-59.25 176.417s-105.322 68.917-186.083 68.917zM341.333 778.667h341.333c68.571 0 111.583-18.621 139.25-48.417s42.083-74.25 42.083-132.917v-362.667c0-58.667-14.416-103.121-42.083-132.917s-70.679-48.417-139.25-48.417h-341.333c-68.571 0-111.583 18.621-139.25 48.417s-42.083 74.25-42.083 132.917v362.667c0 58.667 14.416 103.121 42.083 132.917s70.679 48.417 139.25 48.417zM669.583 418.083c-23.564 0-42.667-19.103-42.667-42.667v0c0-23.564 19.103-42.667 42.667-42.667v0h0.418c23.564 0 42.667 19.103 42.667 42.667v0c0 23.564-19.103 42.667-42.667 42.667v0zM669.583 290.083c-23.564 0-42.667-19.103-42.667-42.667v0c0-23.564 19.103-42.667 42.667-42.667v0h0.418c23.564 0 42.667 19.103 42.667 42.667v0c0 23.564-19.103 42.667-42.667 42.667v0zM511.75 418.083c-23.564 0-42.667-19.103-42.667-42.667v0c0-23.564 19.103-42.667 42.667-42.667v0h0.418c23.564 0 42.667 19.103 42.667 42.667v0c0 23.564-19.103 42.667-42.667 42.667v0zM511.75 290.083c-23.564 0-42.667-19.103-42.667-42.667v0c0-23.564 19.103-42.667 42.667-42.667v0h0.418c23.564 0 42.667 19.103 42.667 42.667v0c0 23.564-19.103 42.667-42.667 42.667v0zM353.917 418.083c-23.564 0-42.667-19.103-42.667-42.667v0c0-23.564 19.103-42.667 42.667-42.667v0h0.417c23.564 0 42.667 19.103 42.667 42.667v0c0 23.564-19.103 42.667-42.667 42.667v0zM353.917 290.083c-23.564 0-42.667-19.103-42.667-42.667v0c0-23.564 19.103-42.667 42.667-42.667v0h0.417c23.564 0 42.667 19.103 42.667 42.667v0c0 23.564-19.103 42.667-42.667 42.667v0z" />
<glyph unicode="&#xe943;" glyph-name="eye-outline" d="M512 632.75c-101.719 0-184.75-83.031-184.75-184.75s83.031-184.75 184.75-184.75c101.719 0 184.75 83.031 184.75 184.75s-83.031 184.75-184.75 184.75zM512 568.75c67.241 0 120.75-53.509 120.75-120.75s-53.509-120.75-120.75-120.75c-67.241 0-120.75 53.509-120.75 120.75s53.509 120.75 120.75 120.75zM512 833.25c-163.182 0-313.506-96.565-415.667-257.167-47.107-73.865-47.135-181.988 0-255.833 102.16-160.567 252.504-257.083 415.667-257.083s313.507 96.516 415.667 257.083v0.085c47.093 73.844 47.093 181.907 0 255.75v0.083c-102.16 160.565-252.503 257.081-415.667 257.081zM512 769.25c138.043 0 268.414-80.902 361.667-227.5 0.013 0 0.028 0 0.043 0s0.030 0 0.045 0h-0.002c29.65-46.45 29.65-140.548 0-187-0.029-0.029-0.057-0.057-0.084-0.084l-0.001-0.001c-93.253-146.596-223.624-227.498-361.667-227.498-138.041 0-268.414 80.902-361.667 227.5-0.034 0.035-0.061 0.063-0.089 0.091l0.005-0.006c-29.65 46.452-29.65 140.55 0 187 0.012 0 0.027 0 0.042 0s0.029 0 0.044 0h-0.002c93.253 146.596 223.626 227.498 361.667 227.498z" />
<glyph unicode="&#xe944;" glyph-name="share" d="M576.059 233.804l-207.642 113.25c-19.931-19.783-45.275-33.226-72.834-38.629s-56.102-2.521-82.028 8.27c-25.927 10.796-48.077 29.028-63.658 52.395-15.581 23.362-23.896 50.82-23.896 78.902 0 28.085 8.315 55.541 23.896 78.907s37.731 41.595 63.658 52.39c25.926 10.795 54.469 13.673 82.028 8.271s52.903-18.844 72.834-38.629l207.642 113.25c-7.119 33.413-1.975 68.272 14.492 98.204s43.159 52.936 75.196 64.806c32.037 11.869 67.272 11.811 99.269-0.165 31.993-11.975 58.607-35.068 74.976-65.054s21.397-64.863 14.165-98.252c-7.231-33.389-26.244-63.059-53.55-83.584-27.312-20.525-61.099-30.534-95.178-28.196-34.085 2.338-66.189 16.865-90.439 40.927l-207.646-113.25c4.142-19.531 4.142-39.713 0-59.247l207.646-113.25c24.249 24.064 56.354 38.59 90.439 40.931 34.080 2.336 67.867-7.675 95.178-28.199 27.307-20.524 46.319-50.196 53.55-83.583s2.204-68.267-14.165-98.25c-16.369-29.989-42.984-53.082-74.976-65.058-31.998-11.976-67.233-12.034-99.269-0.161-32.037 11.869-58.729 34.87-75.196 64.805-16.467 29.93-21.611 64.79-14.492 98.202z" />
</font>
</defs>
</svg>
